<?xml version="1.0" standalone="no"?>
<!DOCTYPE svg PUBLIC "-//W3C//DTD SVG 1.1//EN" "http://www.w3.org/Graphics/SVG/1.1/DTD/svg11.dtd" >
<svg xmlns="http://www.w3.org/2000/svg">
<metadata></metadata>
<defs>
<font id="utb_textbold" horiz-adv-x="0" >
<font-face units-per-em="2048" ascent="1536" descent="-512" />
<missing-glyph horiz-adv-x="425" />
<glyph unicode="fi" horiz-adv-x="1300" d="M49 780v224l135 10v55q0 84 20.5 152.5t63.5 123t117 85t174 30.5q99 0 203 -37l-55 -221q-61 21 -105 21q-117 0 -117 -146v-61h183v-236h-183v-780h-301v780h-135zM844 1323q0 69 49.5 112.5t124.5 43.5q77 0 125.5 -43.5t48.5 -112.5t-49 -113.5t-125 -44.5 q-75 0 -124.5 44.5t-49.5 113.5zM868 0v1016h301v-1016h-301z" />
<glyph unicode="fl" horiz-adv-x="1284" d="M49 780v224l135 10v55q0 84 20.5 152.5t63.5 123t117 85t174 30.5q99 0 203 -37l-55 -221q-61 21 -105 21q-117 0 -117 -146v-61h183v-236h-183v-780h-301v780h-135zM831 315v1121h302v-1133q0 -43 15.5 -63.5t37.5 -20.5q21 0 37 4l37 -223q-59 -25 -152 -25 q-148 0 -212.5 88t-64.5 252z" />
<glyph unicode="ft" horiz-adv-x="1409" d="M49 780v224l135 10v55q0 84 20.5 152.5t63.5 123t117 85t174 30.5q99 0 203 -37l-55 -221q-61 21 -105 21q-117 0 -117 -146v-61h330l35 270h250v-270h243v-236h-243v-407q0 -162 131 -162q42 0 96 20l47 -219q-123 -37 -225 -37q-181 0 -265.5 104t-84.5 290v411h-314 v-780h-301v780h-135z" />
<glyph unicode=" "  horiz-adv-x="425" />
<glyph unicode="&#x09;" horiz-adv-x="425" />
<glyph unicode="&#xa0;" horiz-adv-x="425" />
<glyph unicode="!" horiz-adv-x="696" d="M166 164q0 82 52 136t130 54t130 -54t52 -136q0 -80 -52 -134.5t-130 -54.5t-130 54.5t-52 134.5zM197 1372h303l-11 -272l-43 -627h-196l-43 627z" />
<glyph unicode="&#x22;" horiz-adv-x="1099" d="M156 1405h303l-10 -272l-60 -408h-164l-59 408zM641 1405h303l-10 -272l-60 -408h-163l-62 408z" />
<glyph unicode="#" horiz-adv-x="1081" d="M70 383v192h174l28 226h-161v192h186l43 338h172l-41 -338h213l43 338h172l-41 -338h162v-192h-186l-27 -226h172v-192h-195l-47 -383h-174l45 383h-211l-47 -383h-174l45 383h-151zM420 575h211l28 226h-213z" />
<glyph unicode="$" horiz-adv-x="1081" d="M80 135l131 203q159 -119 293 -119q85 0 125.5 35t40.5 106q0 42 -30 78.5t-77.5 64t-105.5 56t-115.5 63t-105 75.5t-77.5 102.5t-30 136.5q0 150 82.5 250t228.5 129v211h199v-207q167 -23 305 -168l-151 -172q-58 53 -109.5 77.5t-114.5 24.5q-151 0 -151 -131 q0 -39 30 -72t77.5 -58.5t105 -52t115 -60.5t105 -76t77.5 -106.5t30 -143.5q0 -151 -82 -255.5t-237 -137.5v-213h-199v205q-96 11 -193.5 51.5t-166.5 103.5z" />
<glyph unicode="%" horiz-adv-x="1755" d="M53 938q0 196 92 309t240 113t241 -113t93 -309q0 -197 -93 -311.5t-241 -114.5t-240 114.5t-92 311.5zM262 938q0 -134 34 -196t89 -62t89 62t34 196q0 133 -33.5 193.5t-89.5 60.5t-89.5 -60.5t-33.5 -193.5zM432 -25l721 1385h172l-719 -1385h-174zM1036 401 q0 196 93 309t241 113t241 -113t93 -309q0 -197 -93 -311.5t-241 -114.5t-241 114.5t-93 311.5zM1247 401q0 -134 34 -196t89 -62t89 62t34 196q0 254 -123 254t-123 -254z" />
<glyph unicode="&#x26;" horiz-adv-x="1366" d="M51 356q0 67 19 124.5t55 103t76 80t94 69.5q-82 154 -82 277q0 147 99.5 248.5t262.5 101.5q150 0 239 -82.5t89 -220.5q0 -62 -22.5 -117.5t-66 -103.5t-86 -82t-103.5 -76q111 -129 268 -244q106 137 154 320h274q-76 -250 -223 -451q137 -70 231 -84l-72 -244 q-164 34 -342 136q-183 -136 -419 -136q-209 0 -327 109.5t-118 271.5zM336 375q0 -75 55 -122.5t144 -47.5q84 0 170 53q-164 132 -279 277q-90 -80 -90 -160zM461 1012q0 -72 43 -160q83 49 126.5 96t43.5 109q0 49 -23 76.5t-69 27.5q-52 0 -86.5 -40.5t-34.5 -108.5z " />
<glyph unicode="'" horiz-adv-x="614" d="M156 1405h303l-10 -272l-60 -408h-164l-59 408z" />
<glyph unicode="(" horiz-adv-x="704" d="M147 569q0 261 68.5 489t202.5 447l188 -78q-215 -381 -215 -858t215 -858l-188 -78q-134 219 -202.5 447t-68.5 489z" />
<glyph unicode=")" horiz-adv-x="704" d="M98 -289q217 380 217 858t-217 858l189 78q134 -219 202 -446.5t68 -489.5t-68 -489.5t-202 -446.5z" />
<glyph unicode="*" horiz-adv-x="935" d="M78 1118l47 148l237 -49l27 241h158l26 -244l236 52l49 -148l-221 -100l121 -213l-125 -90l-164 182l-166 -182l-125 90l121 213z" />
<glyph unicode="+" horiz-adv-x="1081" d="M70 569v213h360v377h221v-377h361v-213h-361v-376h-221v376h-360z" />
<glyph unicode="," horiz-adv-x="614" d="M94 -238q111 39 171.5 105t60.5 145h-17q-76 0 -129 46t-53 124q0 76 54 124t134 48q101 0 155 -74.5t54 -209.5q0 -170 -94.5 -291.5t-273.5 -175.5z" />
<glyph unicode="-" horiz-adv-x="679" d="M88 412v213h504v-213h-504z" />
<glyph unicode="." horiz-adv-x="614" d="M125 164q0 82 52 136t130 54t130 -54t52 -136q0 -80 -52 -134.5t-130 -54.5t-130 54.5t-52 134.5z" />
<glyph unicode="/" horiz-adv-x="694" d="M27 -328l411 1782h197l-412 -1782h-196z" />
<glyph unicode="0" horiz-adv-x="1187" d="M109 655q0 317 131 493.5t354 176.5q221 0 353 -177.5t132 -492.5q0 -316 -132 -498t-353 -182q-222 0 -353.5 181.5t-131.5 498.5zM410 655q0 -125 13 -211.5t38 -134.5t57 -69t76 -21t76 21t57 69t38 134.5t13 211.5q0 165 -24 261.5t-62 130.5t-98 34t-98 -34 t-62 -130.5t-24 -261.5z" />
<glyph unicode="1" horiz-adv-x="839" d="M80 995v187q188 36 321 118h224v-1300h-301v995h-244z" />
<glyph unicode="2" horiz-adv-x="1077" d="M68 1118q102 108 203.5 157.5t236.5 49.5q192 0 306 -113t114 -301q0 -79 -31.5 -164t-94 -175t-123.5 -163.5t-151 -170.5q132 16 217 16h228v-254h-881v172q96 92 155.5 151t130.5 133t112.5 126.5t79.5 110t54.5 106.5t16.5 94q0 95 -44.5 146t-129.5 51 q-110 0 -236 -134z" />
<glyph unicode="3" horiz-adv-x="1081" d="M45 160l139 190q134 -131 285 -131q97 0 154 40.5t57 113.5q0 46 -15.5 78t-53 57.5t-107.5 38t-174 12.5v213q166 0 236.5 45t70.5 129q0 68 -42 106t-118 38q-65 0 -121 -28t-123 -87l-151 184q194 166 410 166q204 0 326 -94t122 -262q0 -197 -217 -289v-8 q118 -34 188 -115.5t70 -202.5q0 -117 -66.5 -204.5t-175 -131t-241.5 -43.5q-296 0 -453 185z" />
<glyph unicode="4" horiz-adv-x="1146" d="M76 311v207l475 782h369v-759h149v-230h-149v-311h-281v311h-563zM365 541h274v211q0 85 10 290h-8q-38 -84 -106 -219z" />
<glyph unicode="5" horiz-adv-x="1081" d="M47 158l135 190q140 -129 281 -129q102 0 160.5 52.5t58.5 150.5q0 96 -56 148.5t-149 52.5q-55 0 -92.5 -13.5t-99.5 -52.5l-135 86l36 657h738v-253h-478l-22 -244q66 31 145 31q85 0 159 -25t131.5 -73t90.5 -127t33 -179q0 -140 -67 -245t-174 -157.5t-236 -52.5 q-276 0 -459 183z" />
<glyph unicode="6" horiz-adv-x="1150" d="M117 621q0 141 28.5 259t78 199t117 137.5t143.5 82.5t159 26q229 0 381 -156l-160 -180q-34 39 -89.5 65.5t-110.5 26.5q-117 0 -189.5 -95.5t-79.5 -309.5q49 62 123 99.5t137 37.5q174 0 280.5 -101.5t106.5 -299.5q0 -197 -124.5 -317t-307.5 -120q-98 0 -184 37.5 t-156.5 113t-111.5 203t-41 292.5zM401 471q36 -270 203 -270q71 0 117.5 53.5t46.5 157.5q0 98 -46.5 143t-125.5 45q-117 0 -195 -129z" />
<glyph unicode="7" horiz-adv-x="1056" d="M90 1047v253h877v-184q-89 -109 -149.5 -209.5t-98.5 -192.5t-60.5 -209.5t-32.5 -226.5t-18 -278h-303q19 337 91.5 568.5t248.5 478.5h-555z" />
<glyph unicode="8" horiz-adv-x="1124" d="M104 332q0 199 224 319v8q-174 132 -174 308q0 164 115.5 261t299.5 97q179 0 287.5 -97.5t108.5 -258.5q0 -88 -48.5 -162t-121.5 -123v-8q223 -121 223 -340q0 -156 -128 -258.5t-331 -102.5q-197 0 -326 100t-129 257zM365 367q0 -84 57.5 -133.5t142.5 -49.5 q77 0 125.5 41.5t48.5 120.5q0 40 -17 71t-54 56t-78.5 45t-104.5 47q-13 5 -20 8q-100 -93 -100 -206zM418 967q0 -74 55 -120t168 -89q80 93 80 190q0 76 -43 122t-117 46q-62 0 -102.5 -38.5t-40.5 -110.5z" />
<glyph unicode="9" horiz-adv-x="1150" d="M102 889q0 197 125.5 316.5t309.5 119.5q77 0 147.5 -22.5t134 -73t109.5 -124.5t73 -183t27 -242q0 -141 -28.5 -259t-77.5 -199.5t-116.5 -137.5t-143.5 -82.5t-160 -26.5q-225 0 -381 156l160 180q36 -39 91 -65.5t111 -26.5t101.5 21.5t83 68t60 127.5t26.5 193 q-51 -65 -125 -103.5t-137 -38.5q-175 0 -282.5 102t-107.5 300zM379 889q0 -98 46 -143.5t124 -45.5q115 0 196 129q-19 144 -73.5 207.5t-130.5 63.5q-71 0 -116.5 -53t-45.5 -158z" />
<glyph unicode=":" horiz-adv-x="614" d="M125 164q0 82 52 136t130 54t130 -54t52 -136q0 -80 -52 -134.5t-130 -54.5t-130 54.5t-52 134.5zM125 827q0 82 52 136.5t130 54.5t130 -54.5t52 -136.5q0 -80 -52 -134t-130 -54t-130 54t-52 134z" />
<glyph unicode=";" horiz-adv-x="614" d="M94 -238q111 39 171.5 105t60.5 145h-17q-76 0 -129 46t-53 124q0 76 54 124t134 48q101 0 155 -74.5t54 -209.5q0 -170 -94.5 -291.5t-273.5 -175.5zM125 827q0 82 52 136.5t130 54.5t130 -54.5t52 -136.5q0 -80 -52 -134t-130 -54t-130 54t-52 134z" />
<glyph unicode="&#x3c;" horiz-adv-x="1081" d="M70 575v209l942 363v-248l-361 -119l-276 -96v-8l276 -96l361 -119v-248z" />
<glyph unicode="=" horiz-adv-x="1081" d="M70 332v211h942v-211h-942zM70 809v211h942v-211h-942z" />
<glyph unicode="&#x3e;" horiz-adv-x="1081" d="M70 213v248l360 119l277 96v8l-277 96l-360 119v248l942 -363v-209z" />
<glyph unicode="?" horiz-adv-x="948" d="M84 1210q72 87 167.5 137t205.5 50q183 0 294 -88t111 -262q0 -51 -17 -98.5t-43.5 -84.5t-58.5 -72.5t-62.5 -70.5t-55.5 -71.5t-37.5 -82t-7.5 -94.5h-265q-11 78 11 149t62 123t82 98t72.5 93t30.5 88q0 62 -37 95.5t-100 33.5q-53 0 -96.5 -24t-89.5 -70zM266 164 q0 82 51 136t129 54t130.5 -54t52.5 -136q0 -80 -52.5 -134.5t-130.5 -54.5q-77 0 -128.5 54.5t-51.5 134.5z" />
<glyph unicode="@" horiz-adv-x="1849" d="M100 420q0 168 47.5 318t133 264.5t200.5 197.5t254 126.5t289 43.5q218 0 383 -93t253.5 -258t88.5 -378q0 -135 -42.5 -245.5t-111 -178t-149.5 -103.5t-164 -36q-89 0 -153.5 41.5t-81.5 113.5h-5q-42 -59 -111.5 -97t-133.5 -38q-122 0 -196.5 84t-74.5 224 q0 125 53.5 240t150 188t210.5 73q108 0 156 -102h4l28 86h187l-94 -451q-43 -176 94 -176q97 0 170.5 103.5t73.5 265.5q0 114 -32 211t-97 175.5t-175.5 123.5t-255.5 45q-105 0 -206.5 -34t-189.5 -101t-155.5 -158t-106 -211.5t-38.5 -255.5q0 -118 31.5 -216.5 t87 -168.5t131 -118.5t163.5 -71.5t185 -23q158 0 311 80l66 -164q-180 -98 -401 -98q-125 0 -238.5 29.5t-212 92t-171 152.5t-114 217.5t-41.5 280.5zM754 424q0 -137 106 -137q66 0 135 92l49 276q-31 60 -94 60q-58 0 -104.5 -48t-69 -113.5t-22.5 -129.5z" />
<glyph unicode="A" horiz-adv-x="1173" d="M-12 0l418 1335h362l418 -1335h-320l-82 317h-407l-82 -317h-307zM438 553h285l-31 123q-16 59 -34.5 132t-40 162t-33.5 136h-9q-83 -354 -104 -430z" />
<glyph unicode="B" horiz-adv-x="1239" d="M158 0v1335h456q492 0 492 -331q0 -97 -56.5 -178.5t-166.5 -110.5v-8q288 -53 288 -314q0 -99 -40 -175.5t-111 -123.5t-163.5 -70.5t-203.5 -23.5h-495zM459 233h170q248 0 248 183q0 87 -61 127.5t-187 40.5h-170v-351zM459 797h141q107 0 159 43t52 121 q0 74 -51 107.5t-158 33.5h-143v-305z" />
<glyph unicode="C" horiz-adv-x="1191" d="M94 659q0 161 51 295t138.5 222t203 136t244.5 48q116 0 218 -49t177 -125l-165 -187q-56 50 -108.5 75.5t-117.5 25.5q-143 0 -237.5 -117t-94.5 -313q0 -204 87.5 -319t236.5 -115q146 0 254 118l166 -182q-170 -197 -424 -197q-131 0 -244.5 44.5t-199.5 128.5 t-135.5 215.5t-49.5 295.5z" />
<glyph unicode="D" horiz-adv-x="1300" d="M158 0v1335h377q317 0 493 -163.5t176 -497.5t-175 -504t-478 -170h-393zM459 244h57q181 0 280 101t99 329q0 117 -26.5 199.5t-78.5 129.5t-118.5 68t-155.5 21h-57v-848z" />
<glyph unicode="E" horiz-adv-x="1122" d="M158 0v1335h835v-254h-534v-268h454v-252h-454v-307h555v-254h-856z" />
<glyph unicode="F" horiz-adv-x="1073" d="M158 0v1335h841v-254h-540v-309h463v-254h-463v-518h-301z" />
<glyph unicode="G" horiz-adv-x="1306" d="M94 659q0 162 52 295.5t141.5 221.5t209 136t255.5 48q129 0 233.5 -49t179.5 -125l-166 -187q-56 51 -109.5 76t-133.5 25q-158 0 -255.5 -116t-97.5 -314q0 -208 95 -321t280 -113q95 0 144 40v230h-222v246h488v-615q-74 -71 -193.5 -116.5t-253.5 -45.5 q-136 0 -253 44.5t-205 128.5t-138.5 215.5t-50.5 295.5z" />
<glyph unicode="H" horiz-adv-x="1380" d="M158 0v1335h301v-514h461v514h303v-1335h-303v557h-461v-557h-301z" />
<glyph unicode="I" horiz-adv-x="616" d="M158 0v1335h301v-1335h-301z" />
<glyph unicode="J" horiz-adv-x="1042" d="M33 217l205 152q36 -66 84.5 -99.5t101.5 -33.5q85 0 125.5 52t40.5 181v866h301v-891q0 -99 -26 -182.5t-77 -148.5t-134.5 -101.5t-190.5 -36.5q-151 0 -255.5 59.5t-174.5 182.5z" />
<glyph unicode="K" horiz-adv-x="1257" d="M158 0v1335h301v-547h8l397 547h332l-403 -532l477 -803h-330l-326 563l-155 -205v-358h-301z" />
<glyph unicode="L" horiz-adv-x="1060" d="M158 0v1335h301v-1081h528v-254h-829z" />
<glyph unicode="M" horiz-adv-x="1560" d="M158 0v1335h319l223 -600l80 -233h8l80 233l217 600h318v-1335h-281v489q0 37 2.5 82.5t7.5 100t9 91.5t11 99.5t9 81.5h-8l-111 -309l-204 -518h-121l-205 518l-106 309h-9q37 -341 37 -455v-489h-276z" />
<glyph unicode="N" horiz-adv-x="1361" d="M158 0v1335h309l348 -663l131 -295h8q-2 29 -13.5 141t-17 193.5t-5.5 152.5v471h286v-1335h-309l-348 666l-131 290h-8q3 -40 13.5 -145t16.5 -186t6 -152v-473h-286z" />
<glyph unicode="O" horiz-adv-x="1400" d="M94 674q0 322 165.5 504t440.5 182q274 0 440.5 -182.5t166.5 -503.5q0 -323 -167 -511t-440 -188t-439.5 188t-166.5 511zM403 674q0 -201 80.5 -319.5t216.5 -118.5t216.5 118.5t80.5 319.5q0 199 -80 312.5t-217 113.5t-217 -113.5t-80 -312.5z" />
<glyph unicode="P" horiz-adv-x="1241" d="M158 0v1335h487q90 0 165.5 -13.5t142.5 -45t113.5 -80t73.5 -122.5t27 -169q0 -114 -41.5 -202t-114 -142t-165 -81t-201.5 -27h-186v-453h-301zM459 692h168q245 0 245 213q0 102 -60.5 146.5t-184.5 44.5h-168v-404z" />
<glyph unicode="Q" horiz-adv-x="1400" d="M94 674q0 322 165.5 504t440.5 182q274 0 440.5 -182.5t166.5 -503.5q0 -265 -113.5 -441.5t-310.5 -232.5q43 -65 121.5 -95t171.5 -30q77 0 147 25l53 -222q-84 -43 -235 -43q-206 0 -355.5 96t-222.5 259q-217 45 -343 225t-126 459zM403 674q0 -212 80 -332.5 t217 -120.5t217 120.5t80 332.5q0 199 -80 312.5t-217 113.5t-217 -113.5t-80 -312.5z" />
<glyph unicode="R" horiz-adv-x="1261" d="M158 0v1335h481q88 0 162.5 -12.5t140.5 -42.5t112 -76.5t72.5 -118.5t26.5 -165q0 -143 -63 -239.5t-175 -145.5l304 -535h-338l-256 481h-166v-481h-301zM459 721h155q119 0 181.5 50.5t62.5 148.5q0 95 -60.5 135.5t-183.5 40.5h-155v-375z" />
<glyph unicode="S" horiz-adv-x="1138" d="M72 168l172 207q74 -64 161 -101.5t168 -37.5q92 0 139.5 34t47.5 95q0 29 -9.5 49.5t-39.5 40t-49 28.5t-74 32l-21 9l-174 74q-116 47 -192 138t-76 227q0 168 134 282.5t341 114.5q118 0 231.5 -45.5t198.5 -130.5l-153 -191q-138 107 -277 107q-79 0 -124.5 -32 t-45.5 -89q0 -27 12 -48.5t40 -39t53.5 -29.5t72.5 -31q5 -2 8 -3.5t8 -3t9 -3.5l172 -69q128 -52 196 -140t68 -223q0 -83 -34.5 -158t-97.5 -132t-159.5 -90.5t-212.5 -33.5q-133 0 -263.5 50t-229.5 143z" />
<glyph unicode="T" horiz-adv-x="1138" d="M51 1081v254h1036v-254h-366v-1081h-303v1081h-367z" />
<glyph unicode="U" horiz-adv-x="1361" d="M150 618v717h303v-747q0 -190 57 -271t174 -81q118 0 177 81.5t59 270.5v747h290v-717q0 -331 -132 -487t-394 -156q-265 0 -399.5 156t-134.5 487z" />
<glyph unicode="V" horiz-adv-x="1138" d="M-14 1335h319l160 -622q21 -74 54.5 -215t53.5 -213h9q19 71 52.5 212.5t53.5 215.5l158 622h307l-401 -1335h-363z" />
<glyph unicode="W" horiz-adv-x="1665" d="M29 1335h309l92 -624q8 -67 26.5 -208.5t26.5 -213.5h9l79 422l144 624h256l143 -624l80 -422h8l55 422l93 624h288l-237 -1335h-379l-131 606q-24 107 -53 309h-9q-39 -236 -55 -309l-125 -606h-373z" />
<glyph unicode="X" horiz-adv-x="1161" d="M23 0l370 686l-348 649h336l117 -252q10 -19 96 -215h8q46 125 86 215l107 252h321l-346 -663l369 -672h-336l-133 272l-101 220h-8q-12 -32 -90 -220l-125 -272h-323z" />
<glyph unicode="Y" horiz-adv-x="1075" d="M-16 1335h323l119 -307l109 -295h8q88 231 112 295l121 307h316l-404 -860v-475h-301v475z" />
<glyph unicode="Z" horiz-adv-x="1107" d="M74 0v182l590 899h-535v254h905v-182l-590 -899h596v-254h-966z" />
<glyph unicode="[" horiz-adv-x="704" d="M178 -311v1761h432v-160h-207v-1442h207v-159h-432z" />
<glyph unicode="\" horiz-adv-x="694" d="M57 1454h197l414 -1782h-197z" />
<glyph unicode="]" horiz-adv-x="704" d="M94 -152h209v1442h-209v160h432v-1761h-432v159z" />
<glyph unicode="^" horiz-adv-x="1081" d="M102 561l318 811h242l317 -811h-248l-94 262l-92 277h-8l-93 -277l-94 -262h-248z" />
<glyph unicode="_" horiz-adv-x="1024" d="M25 -117h974v-170h-974v170z" />
<glyph unicode="`" horiz-adv-x="1136" d="M262 1483h291l182 -307h-219z" />
<glyph unicode="a" horiz-adv-x="1093" d="M96 283q0 161 136.5 250t435.5 120q-10 148 -160 148q-112 0 -270 -92l-107 198q220 133 434 133q198 0 301 -114t103 -344v-582h-246l-23 104h-6q-146 -129 -297 -129q-135 0 -218 88t-83 220zM383 305q0 -96 117 -96q49 0 86.5 21t81.5 65v178q-153 -21 -219 -63.5 t-66 -104.5z" />
<glyph unicode="b" horiz-adv-x="1173" d="M133 0v1436h301v-353l-8 -155q125 112 268 112q184 0 292 -140t108 -374q0 -127 -36 -233t-96 -174.5t-136.5 -106t-159.5 -37.5q-143 0 -265 131h-8l-24 -106h-236zM434 287q71 -66 162 -66q83 0 135.5 75t52.5 224q0 275 -176 275q-90 0 -174 -93v-415z" />
<glyph unicode="c" horiz-adv-x="956" d="M74 508q0 123 43 225t116 168.5t168 102.5t201 36q184 0 297 -116l-137 -187q-72 60 -141 60q-109 0 -173.5 -78.5t-64.5 -210.5q0 -130 63.5 -209.5t163.5 -79.5q90 0 183 74l120 -191q-71 -62 -161 -94.5t-177 -32.5q-106 0 -197.5 36t-159 103t-106 168.5t-38.5 225.5 z" />
<glyph unicode="d" horiz-adv-x="1173" d="M80 508q0 121 35.5 223t95 168.5t135 103.5t156.5 37q80 0 136.5 -26t113.5 -80l-13 156v346h301v-1436h-245l-21 100h-8q-56 -56 -127.5 -90.5t-142.5 -34.5q-190 0 -303 143t-113 390zM389 512q0 -291 184 -291q100 0 166 92v416q-71 66 -168 66q-77 0 -129.5 -73 t-52.5 -210z" />
<glyph unicode="e" horiz-adv-x="1060" d="M74 508q0 120 40.5 222t107.5 168.5t153 104t178 37.5q209 0 320.5 -135.5t111.5 -351.5q0 -77 -12 -127h-608q20 -112 89.5 -166.5t174.5 -54.5q109 0 219 67l100 -182q-78 -54 -173.5 -84.5t-186.5 -30.5q-224 0 -369 143.5t-145 389.5zM362 612h367q0 93 -41.5 146 t-128.5 53q-74 0 -128.5 -51t-68.5 -148z" />
<glyph unicode="f" horiz-adv-x="698" d="M49 780v224l135 10v55q0 84 20.5 152.5t63.5 123t117 85t174 30.5q99 0 203 -37l-55 -221q-61 21 -105 21q-117 0 -117 -146v-61h183v-236h-183v-780h-301v780h-135z" />
<glyph unicode="g" horiz-adv-x="1093" d="M70 -174q0 123 145 205v8q-94 62 -94 172q0 54 32 104.5t83 85.5v9q-59 40 -98.5 110t-39.5 154q0 89 34.5 160t93.5 115t133.5 67.5t158.5 23.5q90 0 158 -24h371v-219h-162q33 -57 33 -133q0 -167 -111.5 -254.5t-288.5 -87.5q-59 0 -123 20q-21 -18 -29 -34t-8 -42 q0 -39 35.5 -57.5t118.5 -18.5h164q192 0 289.5 -62t97.5 -196q0 -160 -154.5 -262t-412.5 -102q-123 0 -216.5 26t-151.5 85.5t-58 146.5zM317 -127q0 -56 61.5 -86.5t164.5 -30.5q100 0 166.5 36t66.5 89q0 45 -37.5 62.5t-117.5 17.5h-105q-94 0 -143 12 q-56 -50 -56 -100zM379 674q0 -82 38.5 -126t100.5 -44t100.5 44t38.5 126q0 77 -38.5 120.5t-100.5 43.5t-100.5 -42.5t-38.5 -121.5z" />
<glyph unicode="h" horiz-adv-x="1169" d="M133 0v1436h301v-353l-14 -182q155 139 313 139q161 0 238.5 -106t77.5 -303v-631h-301v592q0 107 -29.5 149.5t-95.5 42.5q-53 0 -93.5 -23t-95.5 -75v-686h-301z" />
<glyph unicode="i" horiz-adv-x="565" d="M109 1323q0 69 49.5 112.5t124.5 43.5q77 0 125.5 -43.5t48.5 -112.5t-49 -113.5t-125 -44.5q-75 0 -124.5 44.5t-49.5 113.5zM133 0v1016h301v-1016h-301z" />
<glyph unicode="j" horiz-adv-x="569" d="M-104 -373l53 221q47 -14 80 -14q59 0 82.5 38.5t23.5 125.5v1018h301v-1010q0 -87 -18.5 -157.5t-58.5 -128t-112.5 -89.5t-172.5 -32q-106 0 -178 28zM113 1323q0 69 49.5 112.5t124.5 43.5t124.5 -43.5t49.5 -112.5t-49.5 -113.5t-124.5 -44.5t-124.5 44.5 t-49.5 113.5z" />
<glyph unicode="k" horiz-adv-x="1122" d="M133 0v1436h293v-824h8l322 404h327l-356 -418l383 -598h-326l-229 395l-129 -145v-250h-293z" />
<glyph unicode="l" horiz-adv-x="585" d="M133 315v1121h301v-1133q0 -43 15.5 -63.5t37.5 -20.5q21 0 37 4l37 -223q-59 -25 -151 -25q-148 0 -212.5 88t-64.5 252z" />
<glyph unicode="m" horiz-adv-x="1755" d="M133 0v1016h246l20 -131h9q74 74 145 114.5t162 40.5q200 0 280 -170q80 82 154 126t166 44q160 0 238.5 -106.5t78.5 -302.5v-631h-301v592q0 107 -29.5 149.5t-95.5 42.5q-76 0 -174 -98v-686h-301v592q0 107 -29.5 149.5t-95.5 42.5q-78 0 -172 -98v-686h-301z" />
<glyph unicode="n" horiz-adv-x="1171" d="M133 0v1016h246l20 -129h9q160 153 325 153q161 0 238.5 -106t77.5 -303v-631h-301v592q0 107 -29.5 149.5t-95.5 42.5q-53 0 -93.5 -23t-95.5 -75v-686h-301z" />
<glyph unicode="o" horiz-adv-x="1136" d="M74 508q0 123 41 225t110 168.5t158 102.5t186 36t185.5 -36t157.5 -102.5t110 -168.5t41 -225t-41 -225.5t-110 -168.5t-157.5 -102.5t-185.5 -36.5t-186 36.5t-158 102.5t-110 168.5t-41 225.5zM383 508q0 -135 47 -212t139 -77q91 0 139 77t48 212t-48 212t-139 77 q-92 0 -139 -77t-47 -212z" />
<glyph unicode="p" horiz-adv-x="1173" d="M133 -377v1393h246l20 -101h9q139 125 288 125q184 0 291 -140t107 -376q0 -126 -36 -231.5t-96 -174t-136.5 -106t-159.5 -37.5q-129 0 -242 107l10 -162v-297h-301zM434 287q71 -66 162 -66q83 0 135.5 75t52.5 224q0 275 -176 275q-87 0 -174 -93v-415z" />
<glyph unicode="q" horiz-adv-x="1171" d="M80 508q0 121 35.5 223t95 168.5t135 103.5t156.5 37q82 0 145.5 -30t124.5 -95h8l25 101h235v-1393h-301v309l13 156q-53 -51 -121 -82t-135 -31q-190 0 -303 143t-113 390zM389 512q0 -291 184 -291q100 0 166 92v416q-71 66 -168 66q-77 0 -129.5 -73t-52.5 -210z" />
<glyph unicode="r" horiz-adv-x="815" d="M133 0v1016h246l20 -178h9q54 99 130.5 150.5t157.5 51.5q73 0 121 -20l-49 -260q-59 16 -111 16q-64 0 -125 -45.5t-98 -140.5v-590h-301z" />
<glyph unicode="s" horiz-adv-x="907" d="M43 117l135 188q139 -106 262 -106q129 0 129 86q0 14 -5 26.5t-18.5 24t-24 19.5t-35 19t-37 16t-44 17t-43.5 17q-268 102 -268 299q0 142 106.5 229.5t282.5 87.5q187 0 359 -129l-135 -180q-120 86 -215 86q-115 0 -115 -80q0 -14 5 -25.5t17 -22t22.5 -18t33 -17.5 t35 -15t42.5 -15.5t43 -15.5q45 -16 79 -32t73 -42.5t64 -56.5t42 -75t17 -99q0 -143 -110.5 -235.5t-307.5 -92.5q-99 0 -205.5 39t-183.5 103z" />
<glyph unicode="t" horiz-adv-x="784" d="M35 780v224l155 12l35 270h250v-270h244v-236h-244v-407q0 -162 131 -162q42 0 96 20l48 -219q-123 -37 -226 -37q-181 0 -265.5 104t-84.5 290v411h-139z" />
<glyph unicode="u" horiz-adv-x="1163" d="M123 385v631h301v-592q0 -107 30 -150t97 -43q56 0 95 25.5t85 87.5v672h301v-1016h-246l-22 141h-6q-69 -82 -145 -124t-175 -42q-315 0 -315 410z" />
<glyph unicode="v" horiz-adv-x="1071" d="M25 1016h303l131 -479l80 -314h8q47 199 78 314l133 479h289l-332 -1016h-348z" />
<glyph unicode="w" horiz-adv-x="1589" d="M49 1016h299l98 -471q9 -54 24 -154.5t22 -146.5h8q41 231 59 301l113 471h260l115 -471q18 -74 63 -301h8q9 50 23.5 150t23.5 151l97 471h278l-244 -1016h-352l-92 406q-27 128 -55 296h-9q-36 -216 -51 -296l-90 -406h-344z" />
<glyph unicode="x" horiz-adv-x="1052" d="M29 0l311 528l-293 488h324l90 -164q34 -72 86 -174h8q1 4 70 174l69 164h312l-295 -522l313 -494h-324l-98 168q-16 29 -48 88t-48 88h-8q-8 -18 -36 -80t-42 -96l-80 -168h-311z" />
<glyph unicode="y" horiz-adv-x="1067" d="M25 1016h303l145 -436q14 -44 80 -289h8q60 253 70 289l123 436h288l-352 -1026q-38 -101 -76.5 -169.5t-91 -119.5t-120 -74.5t-156.5 -23.5q-76 0 -144 20l54 230q58 -13 67 -13q133 0 178 133l15 54z" />
<glyph unicode="z" horiz-adv-x="942" d="M78 0v162l426 618h-379v236h754v-160l-426 -620h440v-236h-815z" />
<glyph unicode="{" horiz-adv-x="704" d="M63 481v176q92 3 134.5 46.5t42.5 105.5q0 63 -10.5 169t-10.5 181q0 162 61.5 226.5t200.5 64.5h129v-160h-39q-63 0 -85.5 -29.5t-22.5 -113.5q0 -54 4 -162t4 -172q0 -113 -36 -167t-116 -73v-8q80 -20 116 -73t36 -166q0 -64 -4 -172t-4 -162q0 -85 22.5 -114.5 t85.5 -29.5h39v-159h-129q-139 0 -200.5 64.5t-61.5 226.5q0 74 10.5 181t10.5 169t-42.5 105t-134.5 46z" />
<glyph unicode="|" horiz-adv-x="548" d="M176 -512v2048h197v-2048h-197z" />
<glyph unicode="}" horiz-adv-x="704" d="M94 -152h39q64 0 86.5 29.5t22.5 114.5q0 54 -4.5 162t-4.5 172q0 113 36 166t116 73v8q-80 19 -116 73t-36 167q0 64 4.5 172t4.5 162q0 85 -22 114t-87 29h-39v160h129q139 0 200.5 -64.5t61.5 -226.5q0 -75 -10 -181t-10 -169q0 -62 42 -105.5t134 -46.5v-176 q-92 -3 -134 -46t-42 -105t10 -169t10 -181q0 -162 -61.5 -226.5t-200.5 -64.5h-129v159z" />
<glyph unicode="~" horiz-adv-x="1081" d="M59 649q137 211 308 211q47 0 90 -16t75.5 -39t62 -45.5t61.5 -38.5t63 -16q80 0 147 118l156 -121q-136 -210 -307 -210q-47 0 -90.5 16t-75.5 39t-62 45.5t-62 38.5t-63 16q-80 0 -147 -119z" />
<glyph unicode="&#xa1;" horiz-adv-x="696" d="M166 852q0 80 52 134t130 54t130 -54t52 -134q0 -82 -52 -136t-130 -54t-130 54t-52 136zM197 -356l10 272l43 627h196l43 -627l11 -272h-303z" />
<glyph unicode="&#xa2;" horiz-adv-x="1081" d="M123 629q0 211 121.5 346t318.5 168v198h166v-190q157 -15 254 -115l-137 -184q-61 49 -117 55v-557q75 13 148 72l120 -191q-115 -100 -268 -120v-195h-166v195q-203 27 -321.5 163t-118.5 355zM416 629q0 -93 37.5 -159t109.5 -97v512q-147 -65 -147 -256z" />
<glyph unicode="&#xa3;" horiz-adv-x="1081" d="M98 0v186q96 43 156.5 126t60.5 188q0 19 -4 55h-205v176l140 10h12q-33 101 -33 164q0 191 123 305.5t316 114.5q210 0 354 -166l-164 -164q-71 86 -162 86q-84 0 -131 -48t-47 -144q0 -54 23 -148h303v-186h-265q5 -45 5 -57q0 -73 -21.5 -126.5t-71.5 -109.5v-8h531 v-254h-920z" />
<glyph unicode="&#xa4;" horiz-adv-x="1081" d="M41 322l125 127q-70 95 -70 227q0 130 68 223l-123 127l149 152l142 -144q97 51 209 51q107 0 209 -51l141 144l149 -152l-125 -127q70 -92 70 -223q0 -128 -70 -227l125 -127l-149 -152l-143 145q-94 -49 -207 -49t-207 49l-144 -145zM365 676q0 -90 50.5 -145.5 t125.5 -55.5t125.5 55.5t50.5 145.5q0 89 -50.5 145t-125.5 56t-125.5 -56t-50.5 -145z" />
<glyph unicode="&#xa5;" horiz-adv-x="1081" d="M25 1300h309l104 -272q66 -180 103 -268h8q15 39 49 129.5t53 138.5l103 272h303l-301 -600h250v-143h-316v-113h316v-143h-316v-301h-301v301h-313v143h313v113h-313v143h250z" />
<glyph unicode="&#xa6;" horiz-adv-x="548" d="M176 418h197v-930h-197v930zM176 639v897h197v-897h-197z" />
<glyph unicode="&#xa7;" horiz-adv-x="1081" d="M76 668q0 76 44 146t120 116q-60 70 -60 170q0 140 98 226.5t267 86.5q199 0 368 -133l-137 -188q-112 98 -215 98q-110 0 -110 -80q0 -29 30.5 -55t79.5 -48.5t108 -48t118.5 -59.5t108.5 -75t79.5 -104t30.5 -138q0 -168 -168 -273q47 -70 47 -157 q0 -143 -103.5 -233.5t-289.5 -90.5q-118 0 -225 44t-173 128l174 154q102 -105 224 -105q61 0 91.5 24t30.5 64q0 32 -29.5 59t-77 49t-105 46t-115 57t-105 74t-77 104.5t-29.5 141.5zM330 690q0 -37 20 -67t60 -54.5t78.5 -43t97.5 -44t96 -45.5q70 43 70 121 q0 31 -15.5 58t-39 46t-61.5 39.5t-72 35t-82 35.5t-81 38q-71 -47 -71 -119z" />
<glyph unicode="&#xa8;" horiz-adv-x="1136" d="M223 1313q0 61 40 101t102 40q64 0 103.5 -40t39.5 -101q0 -62 -39.5 -103t-103.5 -41q-62 0 -102 41t-40 103zM629 1313q0 61 40.5 101t102.5 40t102.5 -40t40.5 -101q0 -62 -40 -103t-103 -41t-103 41t-40 103z" />
<glyph unicode="&#xa9;" horiz-adv-x="1536" d="M92 666q0 124 35.5 232.5t98.5 188.5t147.5 138t185 87t209.5 29q136 0 258 -47t214.5 -131.5t147 -213.5t54.5 -283q0 -155 -54.5 -285t-147 -216.5t-214.5 -134.5t-258 -48t-258.5 48t-215.5 134.5t-147.5 216.5t-54.5 285zM231 666q0 -123 41.5 -228.5t114 -178 t171 -113t210.5 -40.5t210.5 40.5t171 113t114 178t41.5 228.5q0 247 -153.5 400t-383.5 153t-383.5 -153t-153.5 -400zM397 664q0 116 56 207t146 138.5t194 47.5q86 0 149.5 -32t120.5 -89l-113 -125q-67 70 -139 70q-94 0 -146.5 -61.5t-52.5 -155.5q0 -104 51.5 -166 t137.5 -62q47 0 83.5 17.5t80.5 52.5l98 -139q-137 -107 -270 -107q-174 0 -285 110.5t-111 293.5z" />
<glyph unicode="&#xaa;" horiz-adv-x="735" d="M59 725q0 108 91.5 166.5t291.5 77.5q-5 46 -28.5 68t-71.5 22q-73 0 -184 -62l-76 140q153 90 297 90q133 0 204.5 -76t71.5 -227v-387h-170l-20 67h-8q-84 -84 -191 -84q-93 0 -150 59t-57 146zM262 741q0 -29 20 -45t56 -16q48 0 104 53v113q-180 -19 -180 -105z" />
<glyph unicode="&#xab;" horiz-adv-x="983" d="M100 410v213l275 295l112 -91l-227 -311l227 -311l-112 -90zM485 410v213l277 295l110 -91l-227 -311l227 -311l-110 -90z" />
<glyph unicode="&#xac;" horiz-adv-x="1081" d="M70 569v213h942v-589h-221v376h-721z" />
<glyph unicode="&#xad;" horiz-adv-x="679" d="M88 412v213h504v-213h-504z" />
<glyph unicode="&#xae;" horiz-adv-x="946" d="M66 1051q0 179 118 296t289 117q170 0 288 -117t118 -296t-118 -296.5t-288 -117.5q-171 0 -289 117.5t-118 296.5zM178 1051q0 -141 82.5 -227.5t212.5 -86.5t211.5 86.5t81.5 227.5t-81.5 227t-211.5 86t-212.5 -86t-82.5 -227zM307 852v403h182q74 0 120 -34.5 t46 -100.5q0 -75 -71 -110l84 -158h-123l-62 123h-59v-123h-117zM424 1057h43q29 0 45 16t16 41q0 23 -16 38t-45 15h-43v-110z" />
<glyph unicode="&#xaf;" horiz-adv-x="1136" d="M287 1212v191h565v-191h-565z" />
<glyph unicode="&#xb0;" horiz-adv-x="747" d="M80 1110q0 128 85.5 211.5t209.5 83.5q126 0 211.5 -83.5t85.5 -211.5t-85.5 -211.5t-211.5 -83.5q-124 0 -209.5 83.5t-85.5 211.5zM238 1110q0 -67 38.5 -109.5t98.5 -42.5q61 0 99 42t38 110q0 66 -38 108t-99 42q-60 0 -98.5 -42t-38.5 -108z" />
<glyph unicode="&#xb1;" horiz-adv-x="1081" d="M70 0v213h942v-213h-942zM70 602v213h360v344h221v-344h361v-213h-361v-278h-221v278h-360z" />
<glyph unicode="&#xb4;" horiz-adv-x="1136" d="M401 1176l183 307h290l-253 -307h-220z" />
<glyph unicode="&#xb5;" horiz-adv-x="1173" d="M133 -410v1426h301v-592q0 -106 29.5 -149.5t95.5 -43.5q56 0 96.5 26t85.5 87v672h301v-1016h-245l-23 141h-8q-38 -72 -96 -110.5t-127 -38.5q-84 0 -127 45l18 -184v-263h-301z" />
<glyph unicode="&#xb6;" horiz-adv-x="1302" d="M80 879q0 101 27 179.5t73.5 130t113.5 85t142 47.5t164 14h90v-932h-82q-110 0 -205.5 31t-167.5 89t-113.5 150t-41.5 206zM805 -164v1499h301v-1499h-301z" />
<glyph unicode="&#xb7;" horiz-adv-x="614" d="M125 655q0 82 52 136.5t130 54.5t130 -54.5t52 -136.5q0 -80 -52 -134t-130 -54t-130 54t-52 134z" />
<glyph unicode="&#xb8;" horiz-adv-x="1136" d="M360 -332q170 17 170 90q0 28 -26.5 48.5t-91.5 37.5l82 164h174l-41 -96q121 -40 121 -152q0 -99 -102.5 -152t-262.5 -61z" />
<glyph unicode="&#xba;" horiz-adv-x="763" d="M49 872q0 161 97.5 258t234.5 97t234.5 -97t97.5 -258t-97.5 -256.5t-234.5 -95.5t-234.5 95.5t-97.5 256.5zM266 872q0 -87 28.5 -135.5t86.5 -48.5t87.5 49t29.5 135q0 88 -29.5 137.5t-87.5 49.5t-86.5 -49.5t-28.5 -137.5z" />
<glyph unicode="&#xbb;" horiz-adv-x="983" d="M111 205l227 311l-227 311l112 91l275 -295v-213l-275 -295zM496 205l227 311l-227 311l112 91l277 -295v-213l-277 -295z" />
<glyph unicode="&#xbc;" horiz-adv-x="1656" d="M94 1110v137q79 11 127 30.5t103 57.5h176v-798h-224v573h-182zM381 -25l721 1385h172l-719 -1385h-174zM956 178v111l289 510h275v-477h118v-144h-118v-178h-195v178h-369zM1161 322h164v84l10 239h-8l-82 -158z" />
<glyph unicode="&#xbd;" horiz-adv-x="1732" d="M94 1110v137q79 11 127 30.5t103 57.5h176v-798h-224v573h-182zM348 -25l721 1385h174l-721 -1385h-174zM1016 659q123 164 305 164q134 0 214.5 -71.5t80.5 -198.5q0 -46 -15.5 -92t-50.5 -96.5t-63.5 -85.5t-81.5 -95h240v-184h-592v119q180 147 265 237.5t85 159.5 q0 59 -31 92t-86 33q-72 0 -145 -96z" />
<glyph unicode="&#xbe;" horiz-adv-x="1675" d="M49 674l133 104q71 -98 168 -98q51 0 84 25.5t33 70.5q0 105 -191 105v127q162 0 162 98q0 39 -27.5 62.5t-72.5 23.5q-65 0 -131 -80l-125 111q67 71 135 104t160 33q114 0 195 -61.5t81 -161.5q0 -117 -114 -185q64 -26 104.5 -76.5t40.5 -117.5q0 -107 -91 -176.5 t-218 -69.5q-105 0 -189 42t-137 120zM426 -25l721 1385h172l-719 -1385h-174zM975 178v111l289 510h274v-477h119v-144h-119v-178h-197v178h-366zM1178 322h163v84l13 239h-8z" />
<glyph unicode="&#xbf;" horiz-adv-x="948" d="M86 -29q0 51 17 98t43.5 84t58.5 72.5t63.5 70.5t56 71.5t38 81.5t8.5 94h262q11 -78 -11 -149t-62 -123t-82 -98t-72.5 -93t-30.5 -88q0 -61 37.5 -95t99.5 -34q53 0 96.5 24t89.5 70l166 -152q-72 -87 -167 -136.5t-205 -49.5q-183 0 -294.5 88.5t-111.5 263.5z M319 852q0 80 52.5 134t130.5 54t130 -54t52 -134q0 -82 -52 -136t-130 -54t-130.5 54t-52.5 136z" />
<glyph unicode="&#xc0;" horiz-adv-x="1173" d="M-12 0l418 1335h362l418 -1335h-320l-82 317h-407l-82 -317h-307zM248 1683h319l166 -245h-239zM438 553h285l-31 123q-16 59 -34.5 132t-40 162t-33.5 136h-9q-83 -354 -104 -430z" />
<glyph unicode="&#xc1;" horiz-adv-x="1173" d="M-12 0l418 1335h362l418 -1335h-320l-82 317h-407l-82 -317h-307zM426 1438l166 245h319l-243 -245h-242zM438 553h285l-31 123q-16 59 -34.5 132t-40 162t-33.5 136h-9q-83 -354 -104 -430z" />
<glyph unicode="&#xc2;" horiz-adv-x="1173" d="M-12 0l418 1335h362l418 -1335h-320l-82 317h-407l-82 -317h-307zM236 1438l196 245h295l197 -245h-232l-108 125h-9l-108 -125h-231zM438 553h285l-31 123q-16 59 -34.5 132t-40 162t-33.5 136h-9q-83 -354 -104 -430z" />
<glyph unicode="&#xc3;" horiz-adv-x="1173" d="M-12 0l418 1335h362l418 -1335h-320l-82 317h-407l-82 -317h-307zM231 1440q14 134 75.5 206t144.5 72q48 0 95.5 -23t86 -46t63.5 -23q59 0 78 92h154q-14 -134 -75 -206t-144 -72q-48 0 -96 23t-86.5 46t-63.5 23q-59 0 -78 -92h-154zM438 553h285l-31 123 q-16 59 -34.5 132t-40 162t-33.5 136h-9q-83 -354 -104 -430z" />
<glyph unicode="&#xc4;" horiz-adv-x="1173" d="M-12 0l418 1335h362l418 -1335h-320l-82 317h-407l-82 -317h-307zM233 1577q0 62 40.5 102.5t103.5 40.5t103 -40.5t40 -102.5t-40 -102.5t-103 -40.5t-103.5 40.5t-40.5 102.5zM438 553h285l-31 123q-16 59 -34.5 132t-40 162t-33.5 136h-9q-83 -354 -104 -430z M639 1577q0 62 40 102.5t103 40.5t103.5 -40.5t40.5 -102.5t-40.5 -102.5t-103.5 -40.5t-103 40.5t-40 102.5z" />
<glyph unicode="&#xc5;" horiz-adv-x="1173" d="M-12 0l418 1335h362l418 -1335h-320l-82 317h-407l-82 -317h-307zM348 1628q0 90 64.5 145.5t167.5 55.5t167 -55.5t64 -145.5q0 -92 -63.5 -146.5t-167.5 -54.5t-168 55t-64 146zM438 553h285l-31 123q-16 59 -34.5 132t-40 162t-33.5 136h-9q-83 -354 -104 -430z M496 1628q0 -40 24 -64t60 -24q35 0 59.5 24t24.5 64q0 39 -24.5 63.5t-59.5 24.5q-36 0 -60 -24.5t-24 -63.5z" />
<glyph unicode="&#xc6;" horiz-adv-x="1730" d="M-29 0l635 1335h998v-254h-512v-268h432v-252h-432v-307h532v-254h-833v305h-363l-139 -305h-318zM535 539h256v569h-9q-135 -322 -161 -379z" />
<glyph unicode="&#xc7;" horiz-adv-x="1191" d="M94 659q0 161 51 295t138.5 222t203 136t244.5 48q116 0 218 -49t177 -125l-165 -187q-56 50 -108.5 75.5t-117.5 25.5q-143 0 -237.5 -117t-94.5 -313q0 -204 87.5 -319t236.5 -115q146 0 254 118l166 -182q-138 -164 -346 -192l-31 -68q121 -40 121 -152 q0 -67 -52 -115t-130.5 -70.5t-180.5 -27.5l-22 121q168 18 168 90q0 28 -26.5 49t-92.5 37l70 138q-236 32 -383.5 208t-147.5 469z" />
<glyph unicode="&#xc8;" horiz-adv-x="1122" d="M158 0v1335h835v-254h-534v-268h454v-252h-454v-307h555v-254h-856zM258 1683h320l165 -245h-239z" />
<glyph unicode="&#xc9;" horiz-adv-x="1122" d="M158 0v1335h835v-254h-534v-268h454v-252h-454v-307h555v-254h-856zM438 1438l164 245h320l-244 -245h-240z" />
<glyph unicode="&#xca;" horiz-adv-x="1122" d="M158 0v1335h835v-254h-534v-268h454v-252h-454v-307h555v-254h-856zM248 1438l196 245h293l197 -245h-229l-111 125h-8l-109 -125h-229z" />
<glyph unicode="&#xcb;" horiz-adv-x="1122" d="M158 0v1335h835v-254h-534v-268h454v-252h-454v-307h555v-254h-856zM244 1577q0 62 40 102.5t103 40.5t103 -40.5t40 -102.5t-40 -102.5t-103 -40.5t-103 40.5t-40 102.5zM651 1577q0 62 39.5 102.5t102.5 40.5q64 0 103.5 -40.5t39.5 -102.5t-39.5 -102.5t-103.5 -40.5 q-63 0 -102.5 40.5t-39.5 102.5z" />
<glyph unicode="&#xcc;" horiz-adv-x="616" d="M-23 1683h320l164 -245h-240zM158 0v1335h301v-1335h-301z" />
<glyph unicode="&#xcd;" horiz-adv-x="616" d="M156 1438l166 245h319l-246 -245h-239zM158 0v1335h301v-1335h-301z" />
<glyph unicode="&#xce;" horiz-adv-x="616" d="M-35 1438l197 245h293l196 -245h-229l-109 125h-8l-110 -125h-230zM158 0v1335h301v-1335h-301z" />
<glyph unicode="&#xcf;" horiz-adv-x="616" d="M-37 1577q0 62 39.5 102.5t103.5 40.5q63 0 102.5 -40.5t39.5 -102.5t-39.5 -102.5t-102.5 -40.5q-64 0 -103.5 40.5t-39.5 102.5zM158 0v1335h301v-1335h-301zM369 1577q0 62 40 102.5t103 40.5t103 -40.5t40 -102.5t-40 -102.5t-103 -40.5t-103 40.5t-40 102.5z" />
<glyph unicode="&#xd0;" horiz-adv-x="1351" d="M53 616v136l156 10v573h377q317 0 493 -163.5t176 -497.5t-175 -504t-478 -170h-393v616h-156zM510 244h57q181 0 280 101t99 329q0 117 -26.5 199.5t-78.5 129.5t-118.5 68t-155.5 21h-57v-330h256v-146h-256v-372z" />
<glyph unicode="&#xd1;" horiz-adv-x="1361" d="M158 0v1335h309l348 -663l131 -295h8q-2 29 -13.5 141t-17 193.5t-5.5 152.5v471h286v-1335h-309l-348 666l-131 290h-8q3 -40 13.5 -145t16.5 -186t6 -152v-473h-286zM334 1440q14 134 75 206t144 72q48 0 96.5 -23t87 -46t62.5 -23q58 0 80 92h153 q-17 -135 -76.5 -206.5t-144.5 -71.5q-47 0 -95 23t-86.5 46t-62.5 23q-61 0 -80 -92h-153z" />
<glyph unicode="&#xd2;" horiz-adv-x="1400" d="M94 674q0 322 165.5 504t440.5 182q274 0 440.5 -182.5t166.5 -503.5q0 -323 -167 -511t-440 -188t-439.5 188t-166.5 511zM369 1683h319l166 -245h-240zM403 674q0 -201 80.5 -319.5t216.5 -118.5t216.5 118.5t80.5 319.5q0 199 -80 312.5t-217 113.5t-217 -113.5 t-80 -312.5z" />
<glyph unicode="&#xd3;" horiz-adv-x="1400" d="M94 674q0 322 165.5 504t440.5 182q274 0 440.5 -182.5t166.5 -503.5q0 -323 -167 -511t-440 -188t-439.5 188t-166.5 511zM403 674q0 -201 80.5 -319.5t216.5 -118.5t216.5 118.5t80.5 319.5q0 199 -80 312.5t-217 113.5t-217 -113.5t-80 -312.5zM547 1438l166 245h319 l-244 -245h-241z" />
<glyph unicode="&#xd4;" horiz-adv-x="1400" d="M94 674q0 322 165.5 504t440.5 182q274 0 440.5 -182.5t166.5 -503.5q0 -323 -167 -511t-440 -188t-439.5 188t-166.5 511zM356 1438l197 245h295l196 -245h-231l-108 125h-9l-108 -125h-232zM403 674q0 -201 80.5 -319.5t216.5 -118.5t216.5 118.5t80.5 319.5 q0 199 -80 312.5t-217 113.5t-217 -113.5t-80 -312.5z" />
<glyph unicode="&#xd5;" horiz-adv-x="1400" d="M94 674q0 322 165.5 504t440.5 182q274 0 440.5 -182.5t166.5 -503.5q0 -323 -167 -511t-440 -188t-439.5 188t-166.5 511zM352 1440q14 134 75 206t144 72q48 0 96 -23t86.5 -46t63.5 -23q58 0 80 92h152q-14 -134 -75.5 -206t-144.5 -72q-48 0 -95.5 23t-86 46 t-63.5 23q-59 0 -78 -92h-154zM403 674q0 -201 80.5 -319.5t216.5 -118.5t216.5 118.5t80.5 319.5q0 199 -80 312.5t-217 113.5t-217 -113.5t-80 -312.5z" />
<glyph unicode="&#xd6;" horiz-adv-x="1400" d="M94 674q0 322 165.5 504t440.5 182q274 0 440.5 -182.5t166.5 -503.5q0 -323 -167 -511t-440 -188t-439.5 188t-166.5 511zM354 1577q0 62 40.5 102.5t103.5 40.5t103 -40.5t40 -102.5t-40 -102.5t-103 -40.5t-103.5 40.5t-40.5 102.5zM403 674q0 -201 80.5 -319.5 t216.5 -118.5t216.5 118.5t80.5 319.5q0 199 -80 312.5t-217 113.5t-217 -113.5t-80 -312.5zM760 1577q0 62 40 102.5t103 40.5t103.5 -40.5t40.5 -102.5t-40.5 -102.5t-103.5 -40.5t-103 40.5t-40 102.5z" />
<glyph unicode="&#xd7;" horiz-adv-x="1081" d="M98 381l291 293l-291 295l150 151l293 -295l293 295l149 -151l-291 -295l291 -293l-149 -152l-293 295l-293 -295z" />
<glyph unicode="&#xd8;" horiz-adv-x="1400" d="M82 35l141 176q-127 186 -127 463q0 322 165.5 504t440.5 182q211 0 359 -109l135 168l156 -121l-156 -192q113 -174 113 -432q0 -323 -167 -511t-440 -188q-189 0 -337 99l-127 -158zM406 674q0 -110 26 -203l451 559q-73 70 -181 70q-137 0 -216.5 -113.5t-79.5 -312.5 zM541 293q69 -57 161 -57q136 0 216.5 118.5t80.5 319.5q0 92 -18 166z" />
<glyph unicode="&#xd9;" horiz-adv-x="1361" d="M150 618v717h303v-747q0 -190 57 -271t174 -81q118 0 177 81.5t59 270.5v747h290v-717q0 -331 -132 -487t-394 -156q-265 0 -399.5 156t-134.5 487zM348 1683h320l166 -245h-240z" />
<glyph unicode="&#xda;" horiz-adv-x="1361" d="M150 618v717h303v-747q0 -190 57 -271t174 -81q118 0 177 81.5t59 270.5v747h290v-717q0 -331 -132 -487t-394 -156q-265 0 -399.5 156t-134.5 487zM526 1438l166 245h320l-244 -245h-242z" />
<glyph unicode="&#xdb;" horiz-adv-x="1361" d="M150 618v717h303v-747q0 -190 57 -271t174 -81q118 0 177 81.5t59 270.5v747h290v-717q0 -331 -132 -487t-394 -156q-265 0 -399.5 156t-134.5 487zM338 1438l197 245h292l197 -245h-229l-111 125h-8l-109 -125h-229z" />
<glyph unicode="&#xdc;" horiz-adv-x="1361" d="M150 618v717h303v-747q0 -190 57 -271t174 -81q118 0 177 81.5t59 270.5v747h290v-717q0 -331 -132 -487t-394 -156q-265 0 -399.5 156t-134.5 487zM334 1577q0 62 40 102.5t103 40.5t103.5 -40.5t40.5 -102.5t-40.5 -102.5t-103.5 -40.5t-103 40.5t-40 102.5zM739 1577 q0 62 40.5 102.5t103.5 40.5t103 -40.5t40 -102.5t-40 -102.5t-103 -40.5t-103.5 40.5t-40.5 102.5z" />
<glyph unicode="&#xdd;" horiz-adv-x="1075" d="M-16 1335h323l119 -307l109 -295h8q88 231 112 295l121 307h316l-404 -860v-475h-301v475zM385 1438l164 245h321l-245 -245h-240z" />
<glyph unicode="&#xde;" horiz-adv-x="1263" d="M158 0v1335h301v-202h186q114 0 204.5 -22t164 -70t113.5 -133t40 -203q0 -115 -41.5 -203.5t-114 -142t-165 -80.5t-201.5 -27h-186v-252h-301zM459 492h168q245 0 245 213q0 101 -60.5 144.5t-184.5 43.5h-168v-401z" />
<glyph unicode="&#xdf;" horiz-adv-x="1294" d="M133 0v997q0 100 30 183t88.5 145t152 96.5t214.5 34.5q102 0 183.5 -28.5t132.5 -76.5t77.5 -109t26.5 -128q0 -66 -25 -123.5t-54.5 -91t-54.5 -72.5t-25 -73q0 -27 20 -50t51.5 -42t70 -39.5t77 -48t70 -61.5t51.5 -86t20 -116q0 -146 -99 -241t-278 -95 q-85 0 -157 23t-152 70l104 204q100 -73 195 -73q52 0 82.5 27.5t30.5 70.5q0 31 -20 57.5t-51.5 47t-70.5 41t-77.5 45.5t-70 54.5t-51.5 74.5t-20 100q0 53 23 102t50 82t50 80.5t23 97.5q0 62 -35 101t-97 39q-92 0 -140 -67.5t-48 -188.5v-963h-297z" />
<glyph unicode="&#xe0;" horiz-adv-x="1093" d="M96 283q0 161 136.5 250t435.5 120q-10 148 -160 148q-112 0 -270 -92l-107 198q220 133 434 133q198 0 301 -114t103 -344v-582h-246l-23 104h-6q-146 -129 -297 -129q-135 0 -218 88t-83 220zM268 1483h293l180 -307h-219zM383 305q0 -96 117 -96q49 0 86.5 21t81.5 65 v178q-153 -21 -219 -63.5t-66 -104.5z" />
<glyph unicode="&#xe1;" horiz-adv-x="1093" d="M96 283q0 161 136.5 250t435.5 120q-10 148 -160 148q-112 0 -270 -92l-107 198q220 133 434 133q198 0 301 -114t103 -344v-582h-246l-23 104h-6q-146 -129 -297 -129q-135 0 -218 88t-83 220zM383 305q0 -96 117 -96q49 0 86.5 21t81.5 65v178q-153 -21 -219 -63.5 t-66 -104.5zM408 1176l182 307h291l-254 -307h-219z" />
<glyph unicode="&#xe2;" horiz-adv-x="1093" d="M96 283q0 161 136.5 250t435.5 120q-10 148 -160 148q-112 0 -270 -92l-107 198q220 133 434 133q198 0 301 -114t103 -344v-582h-246l-23 104h-6q-146 -129 -297 -129q-135 0 -218 88t-83 220zM258 1176l197 307h239l197 -307h-203l-108 161h-9l-110 -161h-203zM383 305 q0 -96 117 -96q49 0 86.5 21t81.5 65v178q-153 -21 -219 -63.5t-66 -104.5z" />
<glyph unicode="&#xe3;" horiz-adv-x="1093" d="M96 283q0 161 136.5 250t435.5 120q-10 148 -160 148q-112 0 -270 -92l-107 198q220 133 434 133q198 0 301 -114t103 -344v-582h-246l-23 104h-6q-146 -129 -297 -129q-135 0 -218 88t-83 220zM236 1178q15 135 71.5 205.5t138.5 70.5q47 0 95 -22.5t86.5 -45 t62.5 -22.5q27 0 43.5 20.5t26.5 69.5h153q-15 -135 -71 -205.5t-140 -70.5q-47 0 -94.5 23t-85.5 46t-61 23q-27 0 -44.5 -21t-27.5 -71h-153zM383 305q0 -96 117 -96q49 0 86.5 21t81.5 65v178q-153 -21 -219 -63.5t-66 -104.5z" />
<glyph unicode="&#xe4;" horiz-adv-x="1093" d="M96 283q0 161 136.5 250t435.5 120q-10 148 -160 148q-112 0 -270 -92l-107 198q220 133 434 133q198 0 301 -114t103 -344v-582h-246l-23 104h-6q-146 -129 -297 -129q-135 0 -218 88t-83 220zM229 1313q0 61 40 101t104 40q62 0 101.5 -40t39.5 -101q0 -62 -39.5 -103 t-101.5 -41q-64 0 -104 41t-40 103zM383 305q0 -96 117 -96q49 0 86.5 21t81.5 65v178q-153 -21 -219 -63.5t-66 -104.5zM635 1313q0 61 40.5 101t102.5 40q63 0 103.5 -40.5t40.5 -100.5q0 -62 -40.5 -103t-103.5 -41t-103 41t-40 103z" />
<glyph unicode="&#xe5;" horiz-adv-x="1093" d="M96 283q0 161 136.5 250t435.5 120q-10 148 -160 148q-112 0 -270 -92l-107 198q220 133 434 133q198 0 301 -114t103 -344v-582h-246l-23 104h-6q-146 -129 -297 -129q-135 0 -218 88t-83 220zM344 1331q0 95 64 152t167 57t166.5 -57t63.5 -152t-63.5 -152t-166.5 -57 t-167 57t-64 152zM383 305q0 -96 117 -96q49 0 86.5 21t81.5 65v178q-153 -21 -219 -63.5t-66 -104.5zM492 1331q0 -42 23.5 -69t59.5 -27q34 0 58 27t24 69t-24 69t-58 27q-36 0 -59.5 -27t-23.5 -69z" />
<glyph unicode="&#xe6;" horiz-adv-x="1609" d="M96 281q0 163 134.5 253.5t431.5 120.5q-5 71 -41.5 108.5t-116.5 37.5q-108 0 -266 -92l-107 198q220 133 416 133q92 0 164.5 -40t117.5 -113q134 153 301 153q130 0 223 -66.5t137 -176t44 -250.5q0 -77 -12 -127h-586q17 -102 82.5 -155.5t161.5 -53.5q88 0 215 74 l102 -195q-78 -54 -173.5 -84.5t-184.5 -30.5q-206 0 -351 158q-106 -85 -197 -121.5t-194 -36.5q-135 0 -218 87.5t-83 218.5zM383 305q0 -96 117 -96q101 0 190 86q-22 63 -28 135l-3 43q-276 -40 -276 -168zM936 604h342q0 97 -39 152t-119 55q-73 0 -122.5 -52.5 t-61.5 -154.5z" />
<glyph unicode="&#xe7;" horiz-adv-x="956" d="M74 508q0 123 43 225t116 168.5t168 102.5t201 36q184 0 297 -116l-137 -187q-72 60 -141 60q-109 0 -173.5 -78.5t-64.5 -210.5q0 -130 63.5 -209.5t163.5 -79.5q90 0 183 74l120 -191q-105 -92 -247 -118l-31 -72q119 -40 119 -152q0 -67 -52 -115t-130.5 -70.5 t-180.5 -27.5l-22 121q168 17 168 90q0 28 -26.5 49t-92.5 37l69 138q-185 29 -299 167.5t-114 358.5z" />
<glyph unicode="&#xe8;" horiz-adv-x="1060" d="M74 508q0 120 40.5 222t107.5 168.5t153 104t178 37.5q209 0 320.5 -135.5t111.5 -351.5q0 -77 -12 -127h-608q20 -112 89.5 -166.5t174.5 -54.5q109 0 219 67l100 -182q-78 -54 -173.5 -84.5t-186.5 -30.5q-224 0 -369 143.5t-145 389.5zM248 1483h291l182 -307h-221z M362 612h367q0 93 -41.5 146t-128.5 53q-74 0 -128.5 -51t-68.5 -148z" />
<glyph unicode="&#xe9;" horiz-adv-x="1060" d="M74 508q0 120 40.5 222t107.5 168.5t153 104t178 37.5q209 0 320.5 -135.5t111.5 -351.5q0 -77 -12 -127h-608q20 -112 89.5 -166.5t174.5 -54.5q109 0 219 67l100 -182q-78 -54 -173.5 -84.5t-186.5 -30.5q-224 0 -369 143.5t-145 389.5zM362 612h367q0 93 -41.5 146 t-128.5 53q-74 0 -128.5 -51t-68.5 -148zM385 1176l182 307h291l-254 -307h-219z" />
<glyph unicode="&#xea;" horiz-adv-x="1060" d="M74 508q0 120 40.5 222t107.5 168.5t153 104t178 37.5q209 0 320.5 -135.5t111.5 -351.5q0 -77 -12 -127h-608q20 -112 89.5 -166.5t174.5 -54.5q109 0 219 67l100 -182q-78 -54 -173.5 -84.5t-186.5 -30.5q-224 0 -369 143.5t-145 389.5zM238 1176l194 307h240l196 -307 h-202l-109 161h-8l-109 -161h-202zM362 612h367q0 93 -41.5 146t-128.5 53q-74 0 -128.5 -51t-68.5 -148z" />
<glyph unicode="&#xeb;" horiz-adv-x="1060" d="M74 508q0 120 40.5 222t107.5 168.5t153 104t178 37.5q209 0 320.5 -135.5t111.5 -351.5q0 -77 -12 -127h-608q20 -112 89.5 -166.5t174.5 -54.5q109 0 219 67l100 -182q-78 -54 -173.5 -84.5t-186.5 -30.5q-224 0 -369 143.5t-145 389.5zM207 1313q0 61 40.5 101 t102.5 40q63 0 103.5 -40.5t40.5 -100.5q0 -62 -40.5 -103t-103.5 -41t-103 41t-40 103zM362 612h367q0 93 -41.5 146t-128.5 53q-74 0 -128.5 -51t-68.5 -148zM612 1313q0 60 40.5 100.5t103.5 40.5q62 0 102.5 -40t40.5 -101q0 -62 -40 -103t-103 -41t-103.5 41t-40.5 103 z" />
<glyph unicode="&#xec;" horiz-adv-x="565" d="M-23 1483h291l183 -307h-220zM133 0v1016h301v-1016h-301z" />
<glyph unicode="&#xed;" horiz-adv-x="565" d="M117 1176l180 307h291l-252 -307h-219zM133 0v1016h301v-1016h-301z" />
<glyph unicode="&#xee;" horiz-adv-x="565" d="M-33 1176l197 307h239l195 -307h-203l-108 161h-8l-109 -161h-203zM133 0v1016h301v-1016h-301z" />
<glyph unicode="&#xef;" horiz-adv-x="565" d="M-63 1313q0 61 40.5 101t102.5 40t102.5 -40t40.5 -101q0 -62 -40 -103t-103 -41t-103 41t-40 103zM133 0v1016h301v-1016h-301zM342 1313q0 61 40 101t103 40t103.5 -40.5t40.5 -100.5q0 -62 -40.5 -103t-103.5 -41t-103 41t-40 103z" />
<glyph unicode="&#xf0;" horiz-adv-x="1146" d="M86 467q0 106 35 195.5t93.5 147.5t133 90t154.5 32q137 0 217 -86q-53 157 -174 272l-291 -145l-78 133l238 119q-66 47 -185 108l131 183q158 -81 283 -175l293 148l78 -133l-246 -125q276 -279 276 -686q0 -252 -131.5 -411t-353.5 -159q-95 0 -181 35t-151 97.5 t-103 156t-38 203.5zM360 467q0 -117 60 -182.5t149 -65.5q90 0 142.5 78t52.5 231q0 62 -2 93q-79 88 -199 88q-93 0 -148 -61.5t-55 -180.5z" />
<glyph unicode="&#xf1;" horiz-adv-x="1171" d="M133 0v1016h246l20 -129h9q160 153 325 153q161 0 238.5 -106t77.5 -303v-631h-301v592q0 107 -29.5 149.5t-95.5 42.5q-53 0 -93.5 -23t-95.5 -75v-686h-301zM291 1178q15 136 72 206t141 70q47 0 94.5 -22.5t85.5 -45t61 -22.5q27 0 43.5 20.5t28.5 69.5h154 q-17 -135 -73 -205.5t-140 -70.5q-47 0 -95 23t-86 46t-61 23q-27 0 -44.5 -21t-27.5 -71h-153z" />
<glyph unicode="&#xf2;" horiz-adv-x="1136" d="M74 508q0 123 41 225t110 168.5t158 102.5t186 36t185.5 -36t157.5 -102.5t110 -168.5t41 -225t-41 -225.5t-110 -168.5t-157.5 -102.5t-185.5 -36.5t-186 36.5t-158 102.5t-110 168.5t-41 225.5zM262 1483h291l182 -307h-219zM383 508q0 -135 47 -212t139 -77 q91 0 139 77t48 212t-48 212t-139 77q-92 0 -139 -77t-47 -212z" />
<glyph unicode="&#xf3;" horiz-adv-x="1136" d="M74 508q0 123 41 225t110 168.5t158 102.5t186 36t185.5 -36t157.5 -102.5t110 -168.5t41 -225t-41 -225.5t-110 -168.5t-157.5 -102.5t-185.5 -36.5t-186 36.5t-158 102.5t-110 168.5t-41 225.5zM383 508q0 -135 47 -212t139 -77q91 0 139 77t48 212t-48 212t-139 77 q-92 0 -139 -77t-47 -212zM401 1176l183 307h290l-253 -307h-220z" />
<glyph unicode="&#xf4;" horiz-adv-x="1136" d="M74 508q0 123 41 225t110 168.5t158 102.5t186 36t185.5 -36t157.5 -102.5t110 -168.5t41 -225t-41 -225.5t-110 -168.5t-157.5 -102.5t-185.5 -36.5t-186 36.5t-158 102.5t-110 168.5t-41 225.5zM252 1176l197 307h239l197 -307h-203l-109 161h-8l-110 -161h-203z M383 508q0 -135 47 -212t139 -77q91 0 139 77t48 212t-48 212t-139 77q-92 0 -139 -77t-47 -212z" />
<glyph unicode="&#xf5;" horiz-adv-x="1136" d="M74 508q0 123 41 225t110 168.5t158 102.5t186 36t185.5 -36t157.5 -102.5t110 -168.5t41 -225t-41 -225.5t-110 -168.5t-157.5 -102.5t-185.5 -36.5t-186 36.5t-158 102.5t-110 168.5t-41 225.5zM229 1178q15 135 71.5 205.5t139.5 70.5q47 0 95 -22.5t86.5 -45 t62.5 -22.5q27 0 43.5 20.5t26.5 69.5h153q-15 -135 -71 -205.5t-140 -70.5q-47 0 -94.5 23t-85.5 46t-61 23q-28 0 -45 -21t-27 -71h-154zM383 508q0 -135 47 -212t139 -77q91 0 139 77t48 212t-48 212t-139 77q-92 0 -139 -77t-47 -212z" />
<glyph unicode="&#xf6;" horiz-adv-x="1136" d="M74 508q0 123 41 225t110 168.5t158 102.5t186 36t185.5 -36t157.5 -102.5t110 -168.5t41 -225t-41 -225.5t-110 -168.5t-157.5 -102.5t-185.5 -36.5t-186 36.5t-158 102.5t-110 168.5t-41 225.5zM223 1313q0 61 40 101t102 40q64 0 103.5 -40t39.5 -101 q0 -62 -39.5 -103t-103.5 -41q-62 0 -102 41t-40 103zM383 508q0 -135 47 -212t139 -77q91 0 139 77t48 212t-48 212t-139 77q-92 0 -139 -77t-47 -212zM629 1313q0 61 40.5 101t102.5 40t102.5 -40t40.5 -101q0 -62 -40 -103t-103 -41t-103 41t-40 103z" />
<glyph unicode="&#xf7;" horiz-adv-x="1081" d="M70 569v213h942v-213h-942zM375 307q0 69 47.5 113.5t118.5 44.5t118.5 -44.5t47.5 -113.5q0 -68 -47.5 -112.5t-118.5 -44.5t-118.5 44.5t-47.5 112.5zM375 1044q0 69 47.5 113.5t118.5 44.5t118.5 -44.5t47.5 -113.5q0 -68 -47.5 -112.5t-118.5 -44.5t-118.5 44.5 t-47.5 112.5z" />
<glyph unicode="&#xf8;" horiz-adv-x="1136" d="M74 508q0 123 41 225t110 168.5t158 102.5t186 36q147 0 271 -79l90 110l112 -88l-96 -119q117 -146 117 -356q0 -123 -41 -225.5t-110 -168.5t-157.5 -102.5t-185.5 -36.5q-150 0 -274 82l-88 -108l-113 86l96 119q-116 142 -116 354zM365 524q0 -82 14 -137l305 381 q-45 39 -115 39q-93 0 -148.5 -77.5t-55.5 -205.5zM451 250q47 -41 118 -41q92 0 147.5 77.5t55.5 205.5q0 84 -14 139z" />
<glyph unicode="&#xf9;" horiz-adv-x="1163" d="M123 385v631h301v-592q0 -107 30 -150t97 -43q56 0 95 25.5t85 87.5v672h301v-1016h-246l-22 141h-6q-69 -82 -145 -124t-175 -42q-315 0 -315 410zM279 1483h290l183 -307h-220z" />
<glyph unicode="&#xfa;" horiz-adv-x="1163" d="M123 385v631h301v-592q0 -107 30 -150t97 -43q56 0 95 25.5t85 87.5v672h301v-1016h-246l-22 141h-6q-69 -82 -145 -124t-175 -42q-315 0 -315 410zM416 1176l182 307h291l-252 -307h-221z" />
<glyph unicode="&#xfb;" horiz-adv-x="1163" d="M123 385v631h301v-592q0 -107 30 -150t97 -43q56 0 95 25.5t85 87.5v672h301v-1016h-246l-22 141h-6q-69 -82 -145 -124t-175 -42q-315 0 -315 410zM268 1176l197 307h240l194 -307h-203l-108 161h-8l-109 -161h-203z" />
<glyph unicode="&#xfc;" horiz-adv-x="1163" d="M123 385v631h301v-592q0 -107 30 -150t97 -43q56 0 95 25.5t85 87.5v672h301v-1016h-246l-22 141h-6q-69 -82 -145 -124t-175 -42q-315 0 -315 410zM238 1313q0 61 40 101t103 40t103 -40t40 -101q0 -62 -40 -103t-103 -41t-103 41t-40 103zM643 1313q0 61 40.5 101 t102.5 40q63 0 103.5 -40.5t40.5 -100.5q0 -62 -40.5 -103t-103.5 -41t-103 41t-40 103z" />
<glyph unicode="&#xfd;" horiz-adv-x="1067" d="M25 1016h303l145 -436q14 -44 80 -289h8q60 253 70 289l123 436h288l-352 -1026q-38 -101 -76.5 -169.5t-91 -119.5t-120 -74.5t-156.5 -23.5q-76 0 -144 20l54 230q58 -13 67 -13q133 0 178 133l15 54zM379 1176l182 307h291l-254 -307h-219z" />
<glyph unicode="&#xfe;" horiz-adv-x="1173" d="M133 -377v1813h301v-353l-8 -143q118 100 254 100q191 0 302.5 -140t111.5 -376q0 -126 -36 -231.5t-96 -174t-136.5 -106t-159.5 -37.5q-129 0 -240 97l8 -152v-297h-301zM434 287q71 -66 162 -66q83 0 135.5 75t52.5 224q0 275 -176 275q-87 0 -174 -93v-415z" />
<glyph unicode="&#xff;" horiz-adv-x="1067" d="M25 1016h303l145 -436q14 -44 80 -289h8q60 253 70 289l123 436h288l-352 -1026q-38 -101 -76.5 -169.5t-91 -119.5t-120 -74.5t-156.5 -23.5q-76 0 -144 20l54 230q58 -13 67 -13q133 0 178 133l15 54zM201 1313q0 61 40.5 101t102.5 40t102.5 -40t40.5 -101 q0 -62 -40 -103t-103 -41t-103 41t-40 103zM606 1313q0 60 40.5 100.5t103.5 40.5q62 0 102.5 -40t40.5 -101q0 -62 -40 -103t-103 -41t-103.5 41t-40.5 103z" />
<glyph unicode="&#x100;" horiz-adv-x="1173" d="M-12 0l418 1335h362l418 -1335h-320l-82 317h-407l-82 -317h-307zM291 1475v190h577v-190h-577zM438 553h285l-31 123q-16 59 -34.5 132t-40 162t-33.5 136h-9q-83 -354 -104 -430z" />
<glyph unicode="&#x101;" horiz-adv-x="1093" d="M96 283q0 161 136.5 250t435.5 120q-10 148 -160 148q-112 0 -270 -92l-107 198q220 133 434 133q198 0 301 -114t103 -344v-582h-246l-23 104h-6q-146 -129 -297 -129q-135 0 -218 88t-83 220zM293 1212v191h565v-191h-565zM383 305q0 -96 117 -96q49 0 86.5 21t81.5 65 v178q-153 -21 -219 -63.5t-66 -104.5z" />
<glyph unicode="&#x102;" horiz-adv-x="1173" d="M-12 0l418 1335h362l418 -1335h-320l-82 317h-407l-82 -317h-307zM299 1683h166q21 -94 115 -94q93 0 114 94h166q-13 -114 -82.5 -179.5t-197.5 -65.5q-129 0 -198.5 65.5t-82.5 179.5zM438 553h285l-31 123q-16 59 -34.5 132t-40 162t-33.5 136h-9q-83 -354 -104 -430z " />
<glyph unicode="&#x103;" horiz-adv-x="1093" d="M96 283q0 161 136.5 250t435.5 120q-10 148 -160 148q-112 0 -270 -92l-107 198q220 133 434 133q198 0 301 -114t103 -344v-582h-246l-23 104h-6q-146 -129 -297 -129q-135 0 -218 88t-83 220zM291 1460h168q6 -54 35 -86.5t81 -32.5q51 0 80 32.5t37 86.5h168 q-5 -120 -78 -202t-207 -82q-136 0 -208.5 82t-75.5 202zM383 305q0 -96 117 -96q49 0 86.5 21t81.5 65v178q-153 -21 -219 -63.5t-66 -104.5z" />
<glyph unicode="&#x104;" horiz-adv-x="1173" d="M-12 0l418 1335h362l418 -1335q-81 -7 -133 -63t-52 -121q0 -37 23 -57.5t57 -20.5q39 0 80 29l70 -152q-40 -31 -100.5 -51.5t-114.5 -20.5q-102 0 -168 51.5t-66 141.5q0 86 52 157t114 107h-82l-82 317h-407l-82 -317h-307zM438 553h285l-31 123q-16 59 -34.5 132 t-40 162t-33.5 136h-9q-83 -354 -104 -430z" />
<glyph unicode="&#x105;" horiz-adv-x="1093" d="M96 281q0 162 136.5 251.5t435.5 120.5q-10 148 -160 148q-112 0 -270 -92l-107 198q220 133 434 133q198 0 301 -114t103 -344v-582q-92 -26 -136.5 -74t-44.5 -100q0 -39 25 -58.5t61 -19.5t74 25l62 -135q-37 -30 -96.5 -49t-110.5 -19q-95 0 -156 48.5t-61 137.5 q0 81 44 143t97 97l-27 108h-6q-146 -129 -297 -129q-135 0 -218 87.5t-83 218.5zM383 305q0 -96 117 -96q49 0 86.5 21t81.5 65v178q-153 -21 -219 -63.5t-66 -104.5z" />
<glyph unicode="&#x106;" horiz-adv-x="1191" d="M94 659q0 161 51 295t138.5 222t203 136t244.5 48q116 0 218 -49t177 -125l-165 -187q-56 50 -108.5 75.5t-117.5 25.5q-143 0 -237.5 -117t-94.5 -313q0 -204 87.5 -319t236.5 -115q146 0 254 118l166 -182q-170 -197 -424 -197q-131 0 -244.5 44.5t-199.5 128.5 t-135.5 215.5t-49.5 295.5zM549 1438l166 245h319l-243 -245h-242z" />
<glyph unicode="&#x107;" horiz-adv-x="956" d="M74 508q0 123 43 225t116 168.5t168 102.5t201 36q184 0 297 -116l-137 -187q-72 60 -141 60q-109 0 -173.5 -78.5t-64.5 -210.5q0 -130 63.5 -209.5t163.5 -79.5q90 0 183 74l120 -191q-71 -62 -161 -94.5t-177 -32.5q-106 0 -197.5 36t-159 103t-106 168.5t-38.5 225.5 zM428 1176l180 307h293l-254 -307h-219z" />
<glyph unicode="&#x108;" horiz-adv-x="1191" d="M94 659q0 161 51 295t138.5 222t203 136t244.5 48q116 0 218 -49t177 -125l-165 -187q-56 50 -108.5 75.5t-117.5 25.5q-143 0 -237.5 -117t-94.5 -313q0 -204 87.5 -319t236.5 -115q146 0 254 118l166 -182q-170 -197 -424 -197q-131 0 -244.5 44.5t-199.5 128.5 t-135.5 215.5t-49.5 295.5zM358 1438l197 245h295l197 -245h-232l-108 125h-9l-108 -125h-232z" />
<glyph unicode="&#x109;" horiz-adv-x="956" d="M74 508q0 123 43 225t116 168.5t168 102.5t201 36q184 0 297 -116l-137 -187q-72 60 -141 60q-109 0 -173.5 -78.5t-64.5 -210.5q0 -130 63.5 -209.5t163.5 -79.5q90 0 183 74l120 -191q-71 -62 -161 -94.5t-177 -32.5q-106 0 -197.5 36t-159 103t-106 168.5t-38.5 225.5 zM279 1176l196 307h240l196 -307h-202l-111 161h-8l-109 -161h-202z" />
<glyph unicode="&#x10a;" horiz-adv-x="1191" d="M94 659q0 161 51 295t138.5 222t203 136t244.5 48q116 0 218 -49t177 -125l-165 -187q-56 50 -108.5 75.5t-117.5 25.5q-143 0 -237.5 -117t-94.5 -313q0 -204 87.5 -319t236.5 -115q146 0 254 118l166 -182q-170 -197 -424 -197q-131 0 -244.5 44.5t-199.5 128.5 t-135.5 215.5t-49.5 295.5zM528 1593q0 69 49.5 113.5t124.5 44.5t125 -44.5t50 -113.5t-50 -113t-125 -44t-124.5 44t-49.5 113z" />
<glyph unicode="&#x10b;" horiz-adv-x="956" d="M74 508q0 123 43 225t116 168.5t168 102.5t201 36q184 0 297 -116l-137 -187q-72 60 -141 60q-109 0 -173.5 -78.5t-64.5 -210.5q0 -130 63.5 -209.5t163.5 -79.5q90 0 183 74l120 -191q-71 -62 -161 -94.5t-177 -32.5q-106 0 -197.5 36t-159 103t-106 168.5t-38.5 225.5 zM428 1323q0 69 47 113.5t119 44.5q73 0 120.5 -44.5t47.5 -113.5t-47.5 -113.5t-120.5 -44.5q-72 0 -119 44.5t-47 113.5z" />
<glyph unicode="&#x10c;" horiz-adv-x="1191" d="M94 659q0 161 51 295t138.5 222t203 136t244.5 48q116 0 218 -49t177 -125l-165 -187q-56 50 -108.5 75.5t-117.5 25.5q-143 0 -237.5 -117t-94.5 -313q0 -204 87.5 -319t236.5 -115q146 0 254 118l166 -182q-170 -197 -424 -197q-131 0 -244.5 44.5t-199.5 128.5 t-135.5 215.5t-49.5 295.5zM358 1683h232l108 -124h9l108 124h232l-197 -245h-295z" />
<glyph unicode="&#x10d;" horiz-adv-x="956" d="M74 508q0 123 43 225t116 168.5t168 102.5t201 36q184 0 297 -116l-137 -187q-72 60 -141 60q-109 0 -173.5 -78.5t-64.5 -210.5q0 -130 63.5 -209.5t163.5 -79.5q90 0 183 74l120 -191q-71 -62 -161 -94.5t-177 -32.5q-106 0 -197.5 36t-159 103t-106 168.5t-38.5 225.5 zM279 1483h202l109 -162h8l111 162h202l-196 -307h-240z" />
<glyph unicode="&#x10e;" horiz-adv-x="1300" d="M158 0v1335h377q317 0 493 -163.5t176 -497.5t-175 -504t-478 -170h-393zM307 1683h232l108 -124h8l109 124h231l-196 -245h-295zM459 244h57q181 0 280 101t99 329q0 117 -26.5 199.5t-78.5 129.5t-118.5 68t-155.5 21h-57v-848z" />
<glyph unicode="&#x10f;" horiz-adv-x="1173" d="M80 508q0 121 35.5 223t95 168.5t135 103.5t156.5 37q80 0 136.5 -26t113.5 -80l-13 156v346h301v-1436h-245l-21 100h-8q-56 -56 -127.5 -90.5t-142.5 -34.5q-190 0 -303 143t-113 390zM389 512q0 -291 184 -291q100 0 166 92v416q-71 66 -168 66q-77 0 -129.5 -73 t-52.5 -210zM1102 1104l35 334h233l-96 -334h-172z" />
<glyph unicode="&#x110;" horiz-adv-x="1351" d="M53 616v136l156 10v573h377q317 0 493 -163.5t176 -497.5t-175 -504t-478 -170h-393v616h-156zM510 244h57q181 0 280 101t99 329q0 117 -26.5 199.5t-78.5 129.5t-118.5 68t-155.5 21h-57v-330h256v-146h-256v-372z" />
<glyph unicode="&#x111;" horiz-adv-x="1173" d="M80 487q0 114 35.5 212t95 162.5t135 101t156.5 36.5q80 0 136.5 -26t113.5 -80l-13 156v90h-305v145h305v152h301v-152h140v-133l-140 -10v-1141h-252l-18 90h-8q-118 -115 -266 -115q-191 0 -303.5 135.5t-112.5 376.5zM389 492q0 -271 184 -271q100 0 166 92v375 q-71 66 -168 66q-77 0 -129.5 -67.5t-52.5 -194.5z" />
<glyph unicode="&#x112;" horiz-adv-x="1122" d="M158 0v1335h835v-254h-534v-268h454v-252h-454v-307h555v-254h-856zM301 1475v190h580v-190h-580z" />
<glyph unicode="&#x113;" horiz-adv-x="1060" d="M74 508q0 120 40.5 222t107.5 168.5t153 104t178 37.5q209 0 320.5 -135.5t111.5 -351.5q0 -77 -12 -127h-608q20 -112 89.5 -166.5t174.5 -54.5q109 0 219 67l100 -182q-78 -54 -173.5 -84.5t-186.5 -30.5q-224 0 -369 143.5t-145 389.5zM270 1212v191h566v-191h-566z M362 612h367q0 93 -41.5 146t-128.5 53q-74 0 -128.5 -51t-68.5 -148z" />
<glyph unicode="&#x114;" horiz-adv-x="1122" d="M158 0v1335h835v-254h-534v-268h454v-252h-454v-307h555v-254h-856zM311 1683h164q21 -94 115 -94q96 0 117 94h163q-13 -114 -81.5 -179.5t-198.5 -65.5q-129 0 -198.5 65.5t-80.5 179.5z" />
<glyph unicode="&#x115;" horiz-adv-x="1060" d="M74 508q0 120 40.5 222t107.5 168.5t153 104t178 37.5q209 0 320.5 -135.5t111.5 -351.5q0 -77 -12 -127h-608q20 -112 89.5 -166.5t174.5 -54.5q109 0 219 67l100 -182q-78 -54 -173.5 -84.5t-186.5 -30.5q-224 0 -369 143.5t-145 389.5zM268 1460h168q6 -53 35 -86 t82 -33q51 0 81 33t36 86h168q-5 -120 -78 -202t-207 -82t-207 82t-78 202zM362 612h367q0 93 -41.5 146t-128.5 53q-74 0 -128.5 -51t-68.5 -148z" />
<glyph unicode="&#x116;" horiz-adv-x="1122" d="M158 0v1335h835v-254h-534v-268h454v-252h-454v-307h555v-254h-856zM416 1593q0 69 49.5 113.5t124.5 44.5q77 0 126.5 -44.5t49.5 -113.5t-49.5 -113t-126.5 -44q-75 0 -124.5 44t-49.5 113z" />
<glyph unicode="&#x117;" horiz-adv-x="1060" d="M74 508q0 120 40.5 222t107.5 168.5t153 104t178 37.5q209 0 320.5 -135.5t111.5 -351.5q0 -77 -12 -127h-608q20 -112 89.5 -166.5t174.5 -54.5q109 0 219 67l100 -182q-78 -54 -173.5 -84.5t-186.5 -30.5q-224 0 -369 143.5t-145 389.5zM362 612h367q0 93 -41.5 146 t-128.5 53q-74 0 -128.5 -51t-68.5 -148zM385 1323q0 69 47.5 113.5t120.5 44.5t119.5 -44.5t46.5 -113.5t-46.5 -113.5t-119.5 -44.5t-120.5 44.5t-47.5 113.5z" />
<glyph unicode="&#x118;" horiz-adv-x="1122" d="M158 0v1335h835v-254h-534v-268h454v-252h-454v-307h555v-254h-10q-70 -3 -123.5 -59.5t-53.5 -124.5q0 -37 25.5 -57.5t60.5 -20.5q33 0 74 29l70 -152q-40 -31 -100.5 -51.5t-114.5 -20.5q-102 0 -169 51.5t-67 141.5q0 85 49.5 155t112.5 109h-610z" />
<glyph unicode="&#x119;" horiz-adv-x="1060" d="M74 508q0 120 40.5 222t107.5 168.5t153 104t178 37.5q209 0 320.5 -135.5t111.5 -351.5q0 -77 -12 -127h-608q20 -112 89.5 -166.5t174.5 -54.5q109 0 219 67l100 -182q-131 -91 -176 -146.5t-45 -117.5q0 -38 24.5 -58t63.5 -20q30 0 72 25l61 -135q-37 -30 -96.5 -49 t-110.5 -19q-94 0 -153.5 48.5t-59.5 137.5q0 68 34 126.5t81 99.5q-29 -7 -55 -7q-224 0 -369 143.5t-145 389.5zM362 612h367q0 93 -41.5 146t-128.5 53q-75 0 -129 -50.5t-68 -148.5z" />
<glyph unicode="&#x11a;" horiz-adv-x="1122" d="M158 0v1335h835v-254h-534v-268h454v-252h-454v-307h555v-254h-856zM248 1683h229l109 -124h8l111 124h229l-197 -245h-293z" />
<glyph unicode="&#x11b;" horiz-adv-x="1060" d="M74 508q0 120 40.5 222t107.5 168.5t153 104t178 37.5q209 0 320.5 -135.5t111.5 -351.5q0 -77 -12 -127h-608q20 -112 89.5 -166.5t174.5 -54.5q109 0 219 67l100 -182q-78 -54 -173.5 -84.5t-186.5 -30.5q-224 0 -369 143.5t-145 389.5zM238 1483h202l109 -162h8 l109 162h202l-196 -307h-240zM362 612h367q0 93 -41.5 146t-128.5 53q-74 0 -128.5 -51t-68.5 -148z" />
<glyph unicode="&#x11c;" horiz-adv-x="1306" d="M94 659q0 162 52 295.5t141.5 221.5t209 136t255.5 48q129 0 233.5 -49t179.5 -125l-166 -187q-56 51 -109.5 76t-133.5 25q-158 0 -255.5 -116t-97.5 -314q0 -208 95 -321t280 -113q95 0 144 40v230h-222v246h488v-615q-74 -71 -193.5 -116.5t-253.5 -45.5 q-136 0 -253 44.5t-205 128.5t-138.5 215.5t-50.5 295.5zM408 1438l196 245h295l197 -245h-232l-108 125h-8l-109 -125h-231z" />
<glyph unicode="&#x11d;" horiz-adv-x="1093" d="M70 -174q0 123 145 205v8q-94 62 -94 172q0 54 32 104.5t83 85.5v9q-59 40 -98.5 110t-39.5 154q0 89 34.5 160t93.5 115t133.5 67.5t158.5 23.5q90 0 158 -24h371v-219h-162q33 -57 33 -133q0 -167 -111.5 -254.5t-288.5 -87.5q-59 0 -123 20q-21 -18 -29 -34t-8 -42 q0 -39 35.5 -57.5t118.5 -18.5h164q192 0 289.5 -62t97.5 -196q0 -160 -154.5 -262t-412.5 -102q-123 0 -216.5 26t-151.5 85.5t-58 146.5zM199 1176l196 307h240l196 -307h-202l-111 161h-8l-109 -161h-202zM317 -127q0 -56 61.5 -86.5t164.5 -30.5q100 0 166.5 36t66.5 89 q0 45 -37.5 62.5t-117.5 17.5h-105q-94 0 -143 12q-56 -50 -56 -100zM379 674q0 -82 38.5 -126t100.5 -44t100.5 44t38.5 126q0 77 -38.5 120.5t-100.5 43.5t-100.5 -42.5t-38.5 -121.5z" />
<glyph unicode="&#x11e;" horiz-adv-x="1306" d="M94 659q0 162 52 295.5t141.5 221.5t209 136t255.5 48q129 0 233.5 -49t179.5 -125l-166 -187q-56 51 -109.5 76t-133.5 25q-158 0 -255.5 -116t-97.5 -314q0 -208 95 -321t280 -113q95 0 144 40v230h-222v246h488v-615q-74 -71 -193.5 -116.5t-253.5 -45.5 q-136 0 -253 44.5t-205 128.5t-138.5 215.5t-50.5 295.5zM471 1683h166q21 -94 115 -94q93 0 114 94h166q-13 -114 -82.5 -179.5t-197.5 -65.5q-129 0 -198.5 65.5t-82.5 179.5z" />
<glyph unicode="&#x11f;" horiz-adv-x="1093" d="M70 -174q0 123 145 205v8q-94 62 -94 172q0 54 32 104.5t83 85.5v9q-59 40 -98.5 110t-39.5 154q0 89 34.5 160t93.5 115t133.5 67.5t158.5 23.5q90 0 158 -24h371v-219h-162q33 -57 33 -133q0 -167 -111.5 -254.5t-288.5 -87.5q-59 0 -123 20q-21 -18 -29 -34t-8 -42 q0 -39 35.5 -57.5t118.5 -18.5h164q192 0 289.5 -62t97.5 -196q0 -160 -154.5 -262t-412.5 -102q-123 0 -216.5 26t-151.5 85.5t-58 146.5zM229 1460h168q8 -54 37 -86.5t80 -32.5q53 0 82 33t35 86h168q-3 -120 -76 -202t-209 -82q-134 0 -207 82t-78 202zM317 -127 q0 -56 61.5 -86.5t164.5 -30.5q100 0 166.5 36t66.5 89q0 45 -37.5 62.5t-117.5 17.5h-105q-94 0 -143 12q-56 -50 -56 -100zM379 674q0 -82 38.5 -126t100.5 -44t100.5 44t38.5 126q0 77 -38.5 120.5t-100.5 43.5t-100.5 -42.5t-38.5 -121.5z" />
<glyph unicode="&#x120;" horiz-adv-x="1306" d="M94 659q0 162 52 295.5t141.5 221.5t209 136t255.5 48q129 0 233.5 -49t179.5 -125l-166 -187q-56 51 -109.5 76t-133.5 25q-158 0 -255.5 -116t-97.5 -314q0 -208 95 -321t280 -113q95 0 144 40v230h-222v246h488v-615q-74 -71 -193.5 -116.5t-253.5 -45.5 q-136 0 -253 44.5t-205 128.5t-138.5 215.5t-50.5 295.5zM578 1593q0 69 49.5 113.5t124.5 44.5t124.5 -44.5t49.5 -113.5t-49.5 -113t-124.5 -44t-124.5 44t-49.5 113z" />
<glyph unicode="&#x121;" horiz-adv-x="1093" d="M70 -174q0 123 145 205v8q-94 62 -94 172q0 54 32 104.5t83 85.5v9q-59 40 -98.5 110t-39.5 154q0 89 34.5 160t93.5 115t133.5 67.5t158.5 23.5q90 0 158 -24h371v-219h-162q33 -57 33 -133q0 -167 -111.5 -254.5t-288.5 -87.5q-59 0 -123 20q-21 -18 -29 -34t-8 -42 q0 -39 35.5 -57.5t118.5 -18.5h164q192 0 289.5 -62t97.5 -196q0 -160 -154.5 -262t-412.5 -102q-123 0 -216.5 26t-151.5 85.5t-58 146.5zM317 -127q0 -56 61.5 -86.5t164.5 -30.5q100 0 166.5 36t66.5 89q0 45 -37.5 62.5t-117.5 17.5h-105q-94 0 -143 12 q-56 -50 -56 -100zM348 1323q0 69 47 113.5t119 44.5q73 0 120.5 -44.5t47.5 -113.5t-47.5 -113.5t-120.5 -44.5q-72 0 -119 44.5t-47 113.5zM379 674q0 -82 38.5 -126t100.5 -44t100.5 44t38.5 126q0 77 -38.5 120.5t-100.5 43.5t-100.5 -42.5t-38.5 -121.5z" />
<glyph unicode="&#x122;" horiz-adv-x="1306" d="M94 659q0 162 52 295.5t141.5 221.5t209 136t255.5 48q129 0 233.5 -49t179.5 -125l-166 -187q-56 51 -109.5 76t-133.5 25q-158 0 -255.5 -116t-97.5 -314q0 -208 95 -321t280 -113q95 0 144 40v230h-222v246h488v-615q-74 -71 -193.5 -116.5t-253.5 -45.5 q-136 0 -253 44.5t-205 128.5t-138.5 215.5t-50.5 295.5zM532 -348q168 18 168 76q0 29 -20.5 46t-67.5 29l58 111q136 -13 192 -53.5t56 -118.5q0 -50 -29 -89.5t-80.5 -64.5t-115 -39t-138.5 -18z" />
<glyph unicode="&#x123;" horiz-adv-x="1093" d="M70 -174q0 123 145 205v8q-94 62 -94 172q0 54 32 104.5t83 85.5v9q-59 40 -98.5 110t-39.5 154q0 89 34.5 160t93.5 115t133.5 67.5t158.5 23.5q90 0 158 -24h371v-219h-162q33 -57 33 -133q0 -167 -111.5 -254.5t-288.5 -87.5q-59 0 -123 20q-21 -18 -29 -34t-8 -42 q0 -39 35.5 -57.5t118.5 -18.5h164q192 0 289.5 -62t97.5 -196q0 -160 -154.5 -262t-412.5 -102q-123 0 -216.5 26t-151.5 85.5t-58 146.5zM317 -127q0 -56 61.5 -86.5t164.5 -30.5q100 0 166.5 36t66.5 89q0 45 -37.5 62.5t-117.5 17.5h-105q-94 0 -143 12 q-56 -50 -56 -100zM340 1286q0 98 101.5 151.5t260.5 61.5l23 -121q-168 -17 -168 -78q0 -53 88 -73l-57 -111q-135 12 -191.5 52t-56.5 118zM379 674q0 -82 38.5 -126t100.5 -44t100.5 44t38.5 126q0 77 -38.5 120.5t-100.5 43.5t-100.5 -42.5t-38.5 -121.5z" />
<glyph unicode="&#x124;" horiz-adv-x="1380" d="M158 0v1335h301v-514h461v514h303v-1335h-303v557h-461v-557h-301zM344 1438l197 245h295l196 -245h-231l-109 125h-8l-109 -125h-231z" />
<glyph unicode="&#x125;" horiz-adv-x="1169" d="M-63 1536l196 246h295l197 -246h-232l-108 123h-9l-108 -123h-231zM133 0v1436h301v-353l-14 -182q155 139 313 139q161 0 238.5 -106t77.5 -303v-631h-301v592q0 107 -29.5 149.5t-95.5 42.5q-53 0 -93.5 -23t-95.5 -75v-686h-301z" />
<glyph unicode="&#x126;" horiz-adv-x="1458" d="M51 995v133l148 13v194h301v-194h461v194h303v-194h143v-146h-143v-995h-303v557h-461v-557h-301v995h-148zM500 821h461v174h-461v-174z" />
<glyph unicode="&#x127;" horiz-adv-x="1169" d="M-6 1139v133l139 10v154h301v-152h346v-145h-346v-97l-14 -182q155 139 313 139q161 0 238.5 -106t77.5 -303v-590h-301v551q0 107 -29.5 149.5t-95.5 42.5q-53 0 -93.5 -23t-95.5 -75v-645h-301v1139h-139z" />
<glyph unicode="&#x128;" horiz-adv-x="616" d="M-41 1440q17 135 76.5 206.5t144.5 71.5q47 0 95 -23t86.5 -46t62.5 -23q61 0 80 92h153q-14 -134 -75 -206t-144 -72q-48 0 -96 23t-86.5 46t-62.5 23q-61 0 -80 -92h-154zM158 0v1335h301v-1335h-301z" />
<glyph unicode="&#x129;" horiz-adv-x="565" d="M-57 1178q17 136 73 206t140 70q47 0 94.5 -22.5t85.5 -45t61 -22.5q53 0 72 90h154q-15 -135 -72 -205.5t-141 -70.5q-47 0 -94.5 23t-85.5 46t-62 23q-27 0 -43.5 -21t-28.5 -71h-153zM133 0v1016h301v-1016h-301z" />
<glyph unicode="&#x12a;" horiz-adv-x="616" d="M18 1475v190h580v-190h-580zM158 0v1335h301v-1335h-301z" />
<glyph unicode="&#x12b;" horiz-adv-x="565" d="M0 1212v191h565v-191h-565zM133 0v1016h301v-1016h-301z" />
<glyph unicode="&#x12c;" horiz-adv-x="616" d="M29 1683h164q21 -94 116 -94q94 0 115 94h164q-11 -114 -80.5 -179.5t-198.5 -65.5q-130 0 -198.5 65.5t-81.5 179.5zM158 0v1335h301v-1335h-301z" />
<glyph unicode="&#x12d;" horiz-adv-x="565" d="M-2 1460h168q8 -54 37 -86.5t80 -32.5q52 0 81 32.5t35 86.5h168q-3 -120 -75.5 -202t-208.5 -82q-134 0 -207 82t-78 202zM133 0v1016h301v-1016h-301z" />
<glyph unicode="&#x12e;" horiz-adv-x="616" d="M86 -264q0 87 46 153.5t106 110.5h-80v1335h301v-1335q-152 -63 -152 -184q0 -37 25 -57.5t59 -20.5q39 0 76 29l68 -152q-38 -31 -98.5 -51.5t-114.5 -20.5q-102 0 -169 51.5t-67 141.5z" />
<glyph unicode="&#x12f;" horiz-adv-x="565" d="M84 -244q0 137 133 244h-84v1016h301v-1016q-76 -29 -111.5 -76t-35.5 -98q0 -38 25 -58t63 -20q19 0 71 25l62 -135q-37 -30 -97.5 -49t-109.5 -19q-95 0 -156 48.5t-61 137.5zM109 1323q0 69 49.5 112.5t124.5 43.5t124.5 -43.5t49.5 -112.5t-49.5 -113.5t-124.5 -44.5 t-124.5 44.5t-49.5 113.5z" />
<glyph unicode="&#x130;" horiz-adv-x="616" d="M135 1593q0 69 49 113.5t125 44.5q75 0 124.5 -44.5t49.5 -113.5t-49.5 -113t-124.5 -44q-76 0 -125 44t-49 113zM158 0v1335h301v-1335h-301z" />
<glyph unicode="&#x131;" horiz-adv-x="565" d="M133 0v1016h301v-1016h-301z" />
<glyph unicode="&#x134;" horiz-adv-x="1042" d="M33 217l205 152q36 -66 84.5 -99.5t101.5 -33.5q85 0 125.5 52t40.5 181v866h301v-891q0 -99 -26 -182.5t-77 -148.5t-134.5 -101.5t-190.5 -36.5q-151 0 -255.5 59.5t-174.5 182.5zM393 1438l197 245h293l196 -245h-229l-111 125h-8l-108 -125h-230z" />
<glyph unicode="&#x135;" horiz-adv-x="569" d="M-104 -373l53 221q47 -14 80 -14q59 0 82.5 38.5t23.5 125.5v1018h301v-1010q0 -87 -18.5 -157.5t-58.5 -128t-112.5 -89.5t-172.5 -32q-106 0 -178 28zM-29 1176l195 307h240l196 -307h-203l-108 161h-8l-109 -161h-203z" />
<glyph unicode="&#x136;" horiz-adv-x="1257" d="M158 0v1335h301v-547h8l397 547h332l-403 -532l477 -803h-330l-326 563l-155 -205v-358h-301zM469 -348q168 17 168 76q0 29 -20.5 46t-67.5 29l57 111q136 -13 192 -53.5t56 -118.5q0 -67 -51.5 -114t-130 -69.5t-180.5 -27.5z" />
<glyph unicode="&#x137;" horiz-adv-x="1122" d="M133 0v1436h293v-824h8l322 404h327l-356 -418l383 -598h-326l-229 395l-129 -145v-250h-293zM393 -348q168 17 168 76q0 29 -20.5 46t-67.5 29l57 111q136 -13 192 -53.5t56 -118.5q0 -67 -51.5 -114t-130 -69.5t-180.5 -27.5z" />
<glyph unicode="&#x138;" horiz-adv-x="1122" d="M133 0v1016h301v-410h6l316 410h327l-348 -418l375 -598h-326l-229 387l-121 -147v-240h-301z" />
<glyph unicode="&#x139;" horiz-adv-x="1060" d="M158 0v1335h301v-1081h528v-254h-829zM162 1438l166 245h319l-244 -245h-241z" />
<glyph unicode="&#x13a;" horiz-adv-x="585" d="M133 315v1121h301v-1133q0 -43 15.5 -63.5t37.5 -20.5q21 0 37 4l37 -223q-59 -25 -151 -25q-148 0 -212.5 88t-64.5 252zM135 1550l166 246h320l-246 -246h-240z" />
<glyph unicode="&#x13b;" horiz-adv-x="1060" d="M158 0v1335h301v-1081h528v-254h-829zM383 -348q170 17 170 76q0 28 -21.5 45.5t-68.5 29.5l59 111q134 -13 190 -53.5t56 -118.5q0 -98 -101.5 -150.5t-260.5 -60.5z" />
<glyph unicode="&#x13c;" horiz-adv-x="585" d="M133 315v1121h301v-1133q0 -43 15.5 -63.5t37.5 -20.5q21 0 37 4l37 -223q-59 -25 -151 -25q-148 0 -212.5 88t-64.5 252zM178 -348q170 17 170 76q0 28 -21 45.5t-67 29.5l57 111q134 -13 191 -53.5t57 -118.5q0 -67 -51.5 -114t-130.5 -69.5t-182 -27.5z" />
<glyph unicode="&#x13d;" horiz-adv-x="1060" d="M158 0v1335h301v-1081h528v-254h-829zM561 1104l35 334h233l-96 -334h-172z" />
<glyph unicode="&#x13e;" horiz-adv-x="585" d="M133 315v1121h301v-1133q0 -43 15.5 -63.5t37.5 -20.5q21 0 37 4l37 -223q-59 -25 -151 -25q-148 0 -212.5 88t-64.5 252zM496 1104l34 334h234l-96 -334h-172z" />
<glyph unicode="&#x13f;" horiz-adv-x="1060" d="M158 0v1335h301v-1081h528v-254h-829zM657 674q0 80 52.5 134t130.5 54t130 -54t52 -134t-52.5 -135.5t-129.5 -55.5q-78 0 -130.5 55.5t-52.5 135.5z" />
<glyph unicode="&#x140;" horiz-adv-x="927" d="M133 315v1121h301v-1133q0 -43 15.5 -63.5t37.5 -20.5q21 0 37 4l37 -223q-59 -25 -151 -25q-148 0 -212.5 88t-64.5 252zM565 674q0 80 51 134t129 54t130.5 -54t52.5 -134t-52.5 -135.5t-130.5 -55.5q-77 0 -128.5 55.5t-51.5 135.5z" />
<glyph unicode="&#x141;" horiz-adv-x="1073" d="M23 342v233l149 89v671h303v-532l354 194v-233l-354 -195v-315h526v-254h-829v430z" />
<glyph unicode="&#x142;" horiz-adv-x="620" d="M31 492v239l123 76v629h301v-480l133 80v-241l-133 -80v-412q0 -43 15.5 -63.5t37.5 -20.5q21 0 37 4l37 -223q-62 -25 -152 -25q-148 0 -212 88t-64 252v250z" />
<glyph unicode="&#x143;" horiz-adv-x="1361" d="M158 0v1335h309l348 -663l131 -295h8q-2 29 -13.5 141t-17 193.5t-5.5 152.5v471h286v-1335h-309l-348 666l-131 290h-8q3 -40 13.5 -145t16.5 -186t6 -152v-473h-286zM530 1438l164 245h320l-244 -245h-240z" />
<glyph unicode="&#x144;" horiz-adv-x="1171" d="M133 0v1016h246l20 -129h9q160 153 325 153q161 0 238.5 -106t77.5 -303v-631h-301v592q0 107 -29.5 149.5t-95.5 42.5q-53 0 -93.5 -23t-95.5 -75v-686h-301zM463 1176l182 307h291l-254 -307h-219z" />
<glyph unicode="&#x145;" horiz-adv-x="1361" d="M158 0v1335h309l348 -663l131 -295h8q-2 29 -13.5 141t-17 193.5t-5.5 152.5v471h286v-1335h-309l-348 666l-131 290h-8q3 -40 13.5 -145t16.5 -186t6 -152v-473h-286zM494 -348q168 17 168 76q0 29 -21 46t-68 29l58 111q136 -13 192 -53.5t56 -118.5q0 -50 -29 -89.5 t-80.5 -64.5t-115 -39t-138.5 -18z" />
<glyph unicode="&#x146;" horiz-adv-x="1171" d="M133 0v1016h246l20 -129h9q160 153 325 153q161 0 238.5 -106t77.5 -303v-631h-301v592q0 107 -29.5 149.5t-95.5 42.5q-53 0 -93.5 -23t-95.5 -75v-686h-301zM385 -348q170 17 170 76q0 28 -21 45.5t-67 29.5l57 111q134 -13 191 -53.5t57 -118.5q0 -67 -51.5 -114 t-130.5 -69.5t-182 -27.5z" />
<glyph unicode="&#x147;" horiz-adv-x="1361" d="M158 0v1335h309l348 -663l131 -295h8q-2 29 -13.5 141t-17 193.5t-5.5 152.5v471h286v-1335h-309l-348 666l-131 290h-8q3 -40 13.5 -145t16.5 -186t6 -152v-473h-286zM340 1683h229l109 -124h8l111 124h229l-197 -245h-292z" />
<glyph unicode="&#x148;" horiz-adv-x="1171" d="M133 0v1016h246l20 -129h9q160 153 325 153q161 0 238.5 -106t77.5 -303v-631h-301v592q0 107 -29.5 149.5t-95.5 42.5q-53 0 -93.5 -23t-95.5 -75v-686h-301zM315 1483h203l109 -162h8l108 162h203l-196 -307h-240z" />
<glyph unicode="&#x149;" horiz-adv-x="1744" d="M145 852q95 47 140 108.5t45 151.5q-6 -2 -19 -2q-67 0 -112 41t-45 109q0 76 43.5 121.5t113.5 45.5q93 0 143 -70t50 -198q0 -295 -293 -438zM702 0v1016h246l23 -129h6q160 153 328 153q315 0 315 -409v-631h-301v592q0 107 -30 149.5t-97 42.5q-53 0 -93 -22.5 t-95 -75.5v-686h-302z" />
<glyph unicode="&#x14c;" horiz-adv-x="1400" d="M94 674q0 322 165.5 504t440.5 182q274 0 440.5 -182.5t166.5 -503.5q0 -323 -167 -511t-440 -188t-439.5 188t-166.5 511zM403 674q0 -201 80.5 -319.5t216.5 -118.5t216.5 118.5t80.5 319.5q0 199 -80 312.5t-217 113.5t-217 -113.5t-80 -312.5zM412 1475v190h577v-190 h-577z" />
<glyph unicode="&#x14d;" horiz-adv-x="1136" d="M74 508q0 123 41 225t110 168.5t158 102.5t186 36t185.5 -36t157.5 -102.5t110 -168.5t41 -225t-41 -225.5t-110 -168.5t-157.5 -102.5t-185.5 -36.5t-186 36.5t-158 102.5t-110 168.5t-41 225.5zM287 1212v191h565v-191h-565zM383 508q0 -135 47 -212t139 -77 q91 0 139 77t48 212t-48 212t-139 77q-92 0 -139 -77t-47 -212z" />
<glyph unicode="&#x14e;" horiz-adv-x="1400" d="M94 674q0 322 165.5 504t440.5 182q274 0 440.5 -182.5t166.5 -503.5q0 -323 -167 -511t-440 -188t-439.5 188t-166.5 511zM403 674q0 -201 80.5 -319.5t216.5 -118.5t216.5 118.5t80.5 319.5q0 199 -80 312.5t-217 113.5t-217 -113.5t-80 -312.5zM420 1683h166 q21 -94 114 -94q94 0 115 94h166q-13 -114 -82.5 -179.5t-198.5 -65.5q-128 0 -197.5 65.5t-82.5 179.5z" />
<glyph unicode="&#x14f;" horiz-adv-x="1136" d="M74 508q0 123 41 225t110 168.5t158 102.5t186 36t185.5 -36t157.5 -102.5t110 -168.5t41 -225t-41 -225.5t-110 -168.5t-157.5 -102.5t-185.5 -36.5t-186 36.5t-158 102.5t-110 168.5t-41 225.5zM283 1460h168q18 -119 118 -119q51 0 80 32.5t37 86.5h168 q-5 -120 -78 -202t-207 -82q-136 0 -208.5 82t-77.5 202zM383 508q0 -135 47 -212t139 -77q91 0 139 77t48 212t-48 212t-139 77q-92 0 -139 -77t-47 -212z" />
<glyph unicode="&#x150;" horiz-adv-x="1400" d="M94 674q0 322 165.5 504t440.5 182q274 0 440.5 -182.5t166.5 -503.5q0 -323 -167 -511t-440 -188t-439.5 188t-166.5 511zM403 674q0 -201 80.5 -319.5t216.5 -118.5t216.5 118.5t80.5 319.5q0 199 -80 312.5t-217 113.5t-217 -113.5t-80 -312.5zM420 1438l129 245h256 l-182 -245h-203zM788 1438l130 245h256l-185 -245h-201z" />
<glyph unicode="&#x151;" horiz-adv-x="1136" d="M74 508q0 123 41 225t110 168.5t158 102.5t186 36t185.5 -36t157.5 -102.5t110 -168.5t41 -225t-41 -225.5t-110 -168.5t-157.5 -102.5t-185.5 -36.5t-186 36.5t-158 102.5t-110 168.5t-41 225.5zM311 1174l142 309h239l-196 -309h-185zM383 508q0 -135 47 -212t139 -77 q91 0 139 77t48 212t-48 212t-139 77q-92 0 -139 -77t-47 -212zM662 1174l141 309h237l-194 -309h-184z" />
<glyph unicode="&#x152;" horiz-adv-x="1783" d="M94 674q0 168 51 296t143.5 207t216 118.5t275.5 39.5h875v-254h-506v-268h426v-252h-426v-307h526v-254h-911q-116 0 -216.5 25.5t-184 79.5t-143.5 133t-93 190t-33 246zM403 674q0 -118 28.5 -203t82.5 -134t124 -71t161 -22h47v848h-47q-92 0 -161 -20.5t-123.5 -67 t-83 -129.5t-28.5 -201z" />
<glyph unicode="&#x153;" horiz-adv-x="1683" d="M74 508q0 123 38.5 225t104.5 168.5t152.5 102.5t183.5 36q205 0 330 -178q62 85 145.5 131.5t175.5 46.5q130 0 223.5 -66.5t138 -176t44.5 -250.5q0 -73 -13 -127h-587q17 -103 82 -156t161 -53q88 0 215 74l105 -195q-78 -54 -174.5 -84.5t-186.5 -30.5q-92 0 -178 47 t-149 132q-65 -90 -146.5 -134.5t-191.5 -44.5q-98 0 -183.5 36.5t-150 103t-102 168t-37.5 225.5zM379 508q0 -134 46 -211.5t128 -77.5q83 0 130.5 78t47.5 211t-47.5 211t-130.5 78q-82 0 -128 -77.5t-46 -211.5zM1010 604h342q0 97 -39 152t-119 55q-73 0 -122.5 -52.5 t-61.5 -154.5z" />
<glyph unicode="&#x154;" horiz-adv-x="1261" d="M158 0v1335h481q88 0 162.5 -12.5t140.5 -42.5t112 -76.5t72.5 -118.5t26.5 -165q0 -143 -63 -239.5t-175 -145.5l304 -535h-338l-256 481h-166v-481h-301zM459 721h155q119 0 181.5 50.5t62.5 148.5q0 95 -60.5 135.5t-183.5 40.5h-155v-375zM481 1438l166 245h320 l-246 -245h-240z" />
<glyph unicode="&#x155;" horiz-adv-x="815" d="M133 0v1016h246l20 -178h9q54 99 130.5 150.5t157.5 51.5q73 0 121 -20l-49 -260q-59 16 -111 16q-64 0 -125 -45.5t-98 -140.5v-590h-301zM338 1176l182 307h291l-254 -307h-219z" />
<glyph unicode="&#x156;" horiz-adv-x="1261" d="M158 0v1335h481q88 0 162.5 -12.5t140.5 -42.5t112 -76.5t72.5 -118.5t26.5 -165q0 -143 -63 -239.5t-175 -145.5l304 -535h-338l-256 481h-166v-481h-301zM459 -348q170 17 170 76q0 28 -21.5 45.5t-68.5 29.5l59 111q134 -13 190 -53.5t56 -118.5q0 -98 -102 -150.5 t-261 -60.5zM459 721h155q119 0 181.5 50.5t62.5 148.5q0 95 -60.5 135.5t-183.5 40.5h-155v-375z" />
<glyph unicode="&#x157;" horiz-adv-x="815" d="M72 -348q168 18 168 76q0 29 -20.5 46t-67.5 29l57 111q136 -13 192 -53.5t56 -118.5q0 -50 -29 -89.5t-80.5 -64.5t-115 -39t-138.5 -18zM133 0v1016h246l20 -178h9q54 99 130.5 150.5t157.5 51.5q73 0 121 -20l-49 -260q-59 16 -111 16q-64 0 -125 -45.5t-98 -140.5 v-590h-301z" />
<glyph unicode="&#x158;" horiz-adv-x="1261" d="M158 0v1335h481q88 0 162.5 -12.5t140.5 -42.5t112 -76.5t72.5 -118.5t26.5 -165q0 -143 -63 -239.5t-175 -145.5l304 -535h-338l-256 481h-166v-481h-301zM291 1683h231l109 -124h8l109 124h231l-197 -245h-295zM459 721h155q119 0 181.5 50.5t62.5 148.5 q0 95 -60.5 135.5t-183.5 40.5h-155v-375z" />
<glyph unicode="&#x159;" horiz-adv-x="815" d="M133 0v1016h246l20 -178h9q54 99 130.5 150.5t157.5 51.5q73 0 121 -20l-49 -260q-59 16 -111 16q-64 0 -125 -45.5t-98 -140.5v-590h-301zM190 1483h201l111 -162h8l108 162h203l-196 -307h-240z" />
<glyph unicode="&#x15a;" horiz-adv-x="1138" d="M72 168l172 207q74 -64 161 -101.5t168 -37.5q92 0 139.5 34t47.5 95q0 29 -9.5 49.5t-39.5 40t-49 28.5t-74 32l-21 9l-174 74q-116 47 -192 138t-76 227q0 168 134 282.5t341 114.5q118 0 231.5 -45.5t198.5 -130.5l-153 -191q-138 107 -277 107q-79 0 -124.5 -32 t-45.5 -89q0 -27 12 -48.5t40 -39t53.5 -29.5t72.5 -31q5 -2 8 -3.5t8 -3t9 -3.5l172 -69q128 -52 196 -140t68 -223q0 -83 -34.5 -158t-97.5 -132t-159.5 -90.5t-212.5 -33.5q-133 0 -263.5 50t-229.5 143zM442 1438l166 245h320l-244 -245h-242z" />
<glyph unicode="&#x15b;" horiz-adv-x="907" d="M43 117l135 188q139 -106 262 -106q129 0 129 86q0 14 -5 26.5t-18.5 24t-24 19.5t-35 19t-37 16t-44 17t-43.5 17q-268 102 -268 299q0 142 106.5 229.5t282.5 87.5q187 0 359 -129l-135 -180q-120 86 -215 86q-115 0 -115 -80q0 -14 5 -25.5t17 -22t22.5 -18t33 -17.5 t35 -15t42.5 -15.5t43 -15.5q45 -16 79 -32t73 -42.5t64 -56.5t42 -75t17 -99q0 -143 -110.5 -235.5t-307.5 -92.5q-99 0 -205.5 39t-183.5 103zM315 1176l183 307h290l-253 -307h-220z" />
<glyph unicode="&#x15c;" horiz-adv-x="1138" d="M72 168l172 207q74 -64 161 -101.5t168 -37.5q92 0 139.5 34t47.5 95q0 29 -9.5 49.5t-39.5 40t-49 28.5t-74 32l-21 9l-174 74q-116 47 -192 138t-76 227q0 168 134 282.5t341 114.5q118 0 231.5 -45.5t198.5 -130.5l-153 -191q-138 107 -277 107q-79 0 -124.5 -32 t-45.5 -89q0 -27 12 -48.5t40 -39t53.5 -29.5t72.5 -31q5 -2 8 -3.5t8 -3t9 -3.5l172 -69q128 -52 196 -140t68 -223q0 -83 -34.5 -158t-97.5 -132t-159.5 -90.5t-212.5 -33.5q-133 0 -263.5 50t-229.5 143zM254 1438l197 245h292l197 -245h-229l-111 125h-8l-109 -125h-229 z" />
<glyph unicode="&#x15d;" horiz-adv-x="907" d="M43 117l135 188q139 -106 262 -106q129 0 129 86q0 14 -5 26.5t-18.5 24t-24 19.5t-35 19t-37 16t-44 17t-43.5 17q-268 102 -268 299q0 142 106.5 229.5t282.5 87.5q187 0 359 -129l-135 -180q-120 86 -215 86q-115 0 -115 -80q0 -14 5 -25.5t17 -22t22.5 -18t33 -17.5 t35 -15t42.5 -15.5t43 -15.5q45 -16 79 -32t73 -42.5t64 -56.5t42 -75t17 -99q0 -143 -110.5 -235.5t-307.5 -92.5q-99 0 -205.5 39t-183.5 103zM168 1176l194 307h240l197 -307h-203l-109 161h-8l-108 -161h-203z" />
<glyph unicode="&#x15e;" horiz-adv-x="1138" d="M72 168l172 207q74 -64 161 -101.5t168 -37.5q92 0 139.5 34t47.5 95q0 29 -9.5 49.5t-39.5 40t-49 28.5t-74 32l-21 9l-174 74q-116 47 -192 138t-76 227q0 168 134 282.5t341 114.5q118 0 231.5 -45.5t198.5 -130.5l-153 -191q-138 107 -277 107q-79 0 -124.5 -32 t-45.5 -89q0 -27 12 -48.5t40 -39t53.5 -29.5t72.5 -31q5 -2 8 -3.5t8 -3t9 -3.5l172 -69q128 -52 196 -140t68 -223q0 -154 -111 -268.5t-303 -138.5l-28 -70q121 -40 121 -152q0 -99 -102.5 -152t-262.5 -61l-23 121q170 17 170 90q0 28 -26.5 48.5t-91.5 37.5l67 138 q-236 26 -407 186z" />
<glyph unicode="&#x15f;" horiz-adv-x="907" d="M43 117l135 188q139 -106 262 -106q129 0 129 86q0 14 -5 26.5t-18.5 24t-24 19.5t-35 19t-37 16t-44 17t-43.5 17q-268 102 -268 299q0 142 106.5 229.5t282.5 87.5q187 0 359 -129l-135 -180q-120 86 -215 86q-115 0 -115 -80q0 -14 5 -25.5t17 -22t22.5 -18t33 -17.5 t35 -15t42.5 -15.5t43 -15.5q45 -16 79 -32t73 -42.5t64 -56.5t42 -75t17 -99q0 -115 -71.5 -199t-205.5 -114l-32 -78q118 -40 118 -152q0 -99 -102 -152t-260 -61l-23 121q168 18 168 90q0 28 -26 49t-92 37l65 133q-91 7 -184 45t-162 95z" />
<glyph unicode="&#x160;" horiz-adv-x="1138" d="M72 168l172 207q74 -64 161 -101.5t168 -37.5q92 0 139.5 34t47.5 95q0 29 -9.5 49.5t-39.5 40t-49 28.5t-74 32l-21 9l-174 74q-116 47 -192 138t-76 227q0 168 134 282.5t341 114.5q118 0 231.5 -45.5t198.5 -130.5l-153 -191q-138 107 -277 107q-79 0 -124.5 -32 t-45.5 -89q0 -27 12 -48.5t40 -39t53.5 -29.5t72.5 -31q5 -2 8 -3.5t8 -3t9 -3.5l172 -69q128 -52 196 -140t68 -223q0 -83 -34.5 -158t-97.5 -132t-159.5 -90.5t-212.5 -33.5q-133 0 -263.5 50t-229.5 143zM254 1683h229l109 -124h8l111 124h229l-197 -245h-292z" />
<glyph unicode="&#x161;" horiz-adv-x="907" d="M43 117l135 188q139 -106 262 -106q129 0 129 86q0 14 -5 26.5t-18.5 24t-24 19.5t-35 19t-37 16t-44 17t-43.5 17q-268 102 -268 299q0 142 106.5 229.5t282.5 87.5q187 0 359 -129l-135 -180q-120 86 -215 86q-115 0 -115 -80q0 -14 5 -25.5t17 -22t22.5 -18t33 -17.5 t35 -15t42.5 -15.5t43 -15.5q45 -16 79 -32t73 -42.5t64 -56.5t42 -75t17 -99q0 -143 -110.5 -235.5t-307.5 -92.5q-99 0 -205.5 39t-183.5 103zM168 1483h203l108 -162h8l109 162h203l-197 -307h-240z" />
<glyph unicode="&#x162;" horiz-adv-x="1138" d="M51 1081v254h1036v-254h-366v-1081h-55l-37 -88q119 -39 119 -152q0 -99 -101.5 -152t-261.5 -61l-23 121q170 17 170 90q0 28 -27 49t-93 37l77 156h-71v1081h-367z" />
<glyph unicode="&#x163;" horiz-adv-x="784" d="M35 780v224l155 12l35 270h250v-270h244v-236h-244v-407q0 -162 131 -162q42 0 96 20l48 -219q-85 -28 -172 -35l-29 -65q119 -40 119 -152q0 -67 -52 -115t-130.5 -70.5t-180.5 -27.5l-22 121q168 18 168 90q0 28 -26.5 49t-92.5 37l74 146q-232 60 -232 379v411h-139z " />
<glyph unicode="&#x164;" horiz-adv-x="1138" d="M51 1081v254h1036v-254h-366v-1081h-303v1081h-367zM225 1683h232l108 -124h8l109 124h231l-196 -245h-295z" />
<glyph unicode="&#x165;" horiz-adv-x="784" d="M35 780v224l155 12l35 270h250v-270h244v-236h-244v-407q0 -162 131 -162q42 0 96 20l48 -219q-123 -37 -226 -37q-181 0 -265.5 104t-84.5 290v411h-139zM557 1104l35 334h233l-96 -334h-172z" />
<glyph unicode="&#x168;" horiz-adv-x="1361" d="M150 618v717h303v-747q0 -190 57 -271t174 -81q118 0 177 81.5t59 270.5v747h290v-717q0 -331 -132 -487t-394 -156q-265 0 -399.5 156t-134.5 487zM332 1440q14 134 75 206t144 72q48 0 96.5 -23t87 -46t62.5 -23q58 0 80 92h151q-14 -134 -75 -206t-144 -72 q-47 0 -95 23t-86.5 46t-62.5 23q-61 0 -80 -92h-153z" />
<glyph unicode="&#x169;" horiz-adv-x="1163" d="M123 385v631h301v-592q0 -107 30 -150t97 -43q56 0 95 25.5t85 87.5v672h301v-1016h-246l-22 141h-6q-69 -82 -145 -124t-175 -42q-315 0 -315 410zM244 1178q17 136 73 206t140 70q47 0 94.5 -22.5t85.5 -45t61 -22.5q27 0 43.5 20.5t28.5 69.5h154q-15 -135 -72 -205.5 t-141 -70.5q-47 0 -94.5 23t-85.5 46t-62 23q-27 0 -43.5 -21t-28.5 -71h-153z" />
<glyph unicode="&#x16a;" horiz-adv-x="1361" d="M150 618v717h303v-747q0 -190 57 -271t174 -81q118 0 177 81.5t59 270.5v747h290v-717q0 -331 -132 -487t-394 -156q-265 0 -399.5 156t-134.5 487zM391 1475v190h580v-190h-580z" />
<glyph unicode="&#x16b;" horiz-adv-x="1163" d="M123 385v631h301v-592q0 -107 30 -150t97 -43q56 0 95 25.5t85 87.5v672h301v-1016h-246l-22 141h-6q-69 -82 -145 -124t-175 -42q-315 0 -315 410zM299 1212v191h565v-191h-565z" />
<glyph unicode="&#x16c;" horiz-adv-x="1361" d="M150 618v717h303v-747q0 -190 57 -271t174 -81q118 0 177 81.5t59 270.5v747h290v-717q0 -331 -132 -487t-394 -156q-265 0 -399.5 156t-134.5 487zM401 1683h164q21 -94 115 -94q96 0 117 94h164q-13 -114 -82.5 -179.5t-198.5 -65.5t-198.5 65.5t-80.5 179.5z" />
<glyph unicode="&#x16d;" horiz-adv-x="1163" d="M123 385v631h301v-592q0 -107 30 -150t97 -43q56 0 95 25.5t85 87.5v672h301v-1016h-246l-22 141h-6q-69 -82 -145 -124t-175 -42q-315 0 -315 410zM299 1460h168q6 -53 36 -86t81 -33t80.5 33t35.5 86h168q-5 -120 -77.5 -202t-206.5 -82t-207 82t-78 202z" />
<glyph unicode="&#x16e;" horiz-adv-x="1361" d="M150 618v717h303v-747q0 -190 57 -271t174 -81q118 0 177 81.5t59 270.5v747h290v-717q0 -331 -132 -487t-394 -156q-265 0 -399.5 156t-134.5 487zM451 1628q0 91 63 146t166 55t167 -55.5t64 -145.5q0 -92 -63.5 -146.5t-167.5 -54.5q-103 0 -166 54.5t-63 146.5z M596 1628q0 -40 24.5 -64t59.5 -24q36 0 60 24t24 64q0 39 -24 63.5t-60 24.5q-35 0 -59.5 -24.5t-24.5 -63.5z" />
<glyph unicode="&#x16f;" horiz-adv-x="1163" d="M123 385v631h301v-592q0 -107 30 -150t97 -43q56 0 95 25.5t85 87.5v672h301v-1016h-246l-22 141h-6q-69 -82 -145 -124t-175 -42q-315 0 -315 410zM352 1331q0 95 64.5 152t167.5 57t167 -57t64 -152t-64 -152t-167 -57t-167.5 57t-64.5 152zM500 1331q0 -42 24 -69 t60 -27t60 27t24 69t-24 69t-60 27t-60 -27t-24 -69z" />
<glyph unicode="&#x170;" horiz-adv-x="1361" d="M150 618v717h303v-747q0 -190 57 -271t174 -81q118 0 177 81.5t59 270.5v747h290v-717q0 -331 -132 -487t-394 -156q-265 0 -399.5 156t-134.5 487zM399 1438l129 245h258l-184 -245h-203zM768 1438l129 245h256l-182 -245h-203z" />
<glyph unicode="&#x171;" horiz-adv-x="1163" d="M123 385v631h301v-592q0 -107 30 -150t97 -43q56 0 95 25.5t85 87.5v672h301v-1016h-246l-22 141h-6q-69 -82 -145 -124t-175 -42q-315 0 -315 410zM328 1174l139 309h240l-195 -309h-184zM676 1174l141 309h240l-195 -309h-186z" />
<glyph unicode="&#x172;" horiz-adv-x="1361" d="M150 618v717h303v-747q0 -190 57 -271t174 -81q118 0 177 81.5t59 270.5v747h290v-717q0 -187 -38 -307.5t-110.5 -191.5t-199.5 -129q-72 -33 -108.5 -81t-36.5 -93q0 -37 25.5 -57.5t60.5 -20.5q33 0 74 29l69 -152q-40 -31 -100.5 -51.5t-114.5 -20.5 q-101 0 -167 51.5t-66 141.5q0 127 131 244q-238 14 -358.5 170.5t-120.5 467.5z" />
<glyph unicode="&#x173;" horiz-adv-x="1163" d="M123 385v631h301v-592q0 -107 30 -150t97 -43q56 0 95 25.5t85 87.5v672h301v-1016q-94 -29 -137 -76t-43 -98q0 -37 25.5 -57.5t60.5 -20.5q36 0 74 25l61 -135q-37 -30 -97.5 -49t-109.5 -19q-95 0 -156 48.5t-61 137.5q0 81 43.5 142t98.5 98l-27 145h-6 q-69 -82 -145 -124t-175 -42q-315 0 -315 410z" />
<glyph unicode="&#x174;" horiz-adv-x="1665" d="M29 1335h309l92 -624q8 -67 26.5 -208.5t26.5 -213.5h9l79 422l144 624h256l143 -624l80 -422h8l55 422l93 624h288l-237 -1335h-379l-131 606q-24 107 -53 309h-9q-39 -236 -55 -309l-125 -606h-373zM489 1438l197 245h293l197 -245h-230l-108 125h-9l-110 -125h-230z " />
<glyph unicode="&#x175;" horiz-adv-x="1589" d="M49 1016h299l98 -471q9 -54 24 -154.5t22 -146.5h8q41 231 59 301l113 471h260l115 -471q18 -74 63 -301h8q9 50 23.5 150t23.5 151l97 471h278l-244 -1016h-352l-92 406q-27 128 -55 296h-9q-36 -216 -51 -296l-90 -406h-344zM481 1176l195 307h239l197 -307h-203 l-108 161h-8l-109 -161h-203z" />
<glyph unicode="&#x176;" horiz-adv-x="1075" d="M-16 1335h323l119 -307l109 -295h8q88 231 112 295l121 307h316l-404 -860v-475h-301v475zM195 1438l196 245h293l197 -245h-230l-110 125h-9l-108 -125h-229z" />
<glyph unicode="&#x177;" horiz-adv-x="1067" d="M25 1016h303l145 -436q14 -44 80 -289h8q60 253 70 289l123 436h288l-352 -1026q-38 -101 -76.5 -169.5t-91 -119.5t-120 -74.5t-156.5 -23.5q-76 0 -144 20l54 230q58 -13 67 -13q133 0 178 133l15 54zM231 1176l195 307h240l196 -307h-203l-108 161h-8l-109 -161h-203z " />
<glyph unicode="&#x178;" horiz-adv-x="1075" d="M-16 1335h323l119 -307l109 -295h8q88 231 112 295l121 307h316l-404 -860v-475h-301v475zM193 1577q0 62 39.5 102.5t101.5 40.5q63 0 103 -40.5t40 -102.5t-40 -102.5t-103 -40.5q-62 0 -101.5 40.5t-39.5 102.5zM598 1577q0 62 39.5 102.5t103.5 40.5 q63 0 102.5 -40.5t39.5 -102.5t-39.5 -102.5t-102.5 -40.5q-64 0 -103.5 40.5t-39.5 102.5z" />
<glyph unicode="&#x179;" horiz-adv-x="1107" d="M74 0v182l590 899h-535v254h905v-182l-590 -899h596v-254h-966zM426 1438l166 245h319l-243 -245h-242z" />
<glyph unicode="&#x17a;" horiz-adv-x="942" d="M78 0v162l426 618h-379v236h754v-160l-426 -620h440v-236h-815zM336 1176l182 307h291l-254 -307h-219z" />
<glyph unicode="&#x17b;" horiz-adv-x="1107" d="M74 0v182l590 899h-535v254h905v-182l-590 -899h596v-254h-966zM406 1593q0 69 49.5 113.5t124.5 44.5t124.5 -44.5t49.5 -113.5t-49.5 -113t-124.5 -44t-124.5 44t-49.5 113z" />
<glyph unicode="&#x17c;" horiz-adv-x="942" d="M78 0v162l426 618h-379v236h754v-160l-426 -620h440v-236h-815zM336 1323q0 69 47 113.5t119 44.5q73 0 120.5 -44.5t47.5 -113.5t-47.5 -113.5t-120.5 -44.5q-72 0 -119 44.5t-47 113.5z" />
<glyph unicode="&#x17d;" horiz-adv-x="1107" d="M74 0v182l590 899h-535v254h905v-182l-590 -899h596v-254h-966zM236 1683h231l108 -124h9l108 124h232l-197 -245h-295z" />
<glyph unicode="&#x17e;" horiz-adv-x="942" d="M78 0v162l426 618h-379v236h754v-160l-426 -620h440v-236h-815zM186 1483h203l109 -162h8l110 162h203l-196 -307h-240z" />
<glyph unicode="&#x180;" horiz-adv-x="1169" d="M-6 1139v133l139 10v154h301v-152h346v-145h-346v-97l-8 -155q125 112 268 112q184 0 292 -134t108 -359q0 -123 -36 -225t-96 -168t-136.5 -102t-159.5 -36q-143 0 -265 131h-8l-24 -106h-236v1139h-139zM434 287q71 -66 162 -66q84 0 136 69.5t52 209.5q0 254 -176 254 q-91 0 -174 -92v-375z" />
<glyph unicode="&#x18f;" horiz-adv-x="1386" d="M104 662q0 39 7 100h878q-17 171 -100 260.5t-225 89.5q-155 0 -291 -125l-140 207q183 166 467 166q265 0 428.5 -184.5t163.5 -505.5q0 -161 -44.5 -292t-124 -219t-190 -136t-241.5 -48q-266 0 -427 183.5t-161 503.5zM412 541q12 -155 88 -237.5t192 -82.5 q111 0 189 83t102 237h-571z" />
<glyph unicode="&#x192;" horiz-adv-x="1081" d="M61 -166l41 223q35 -14 91 -18q50 2 78.5 26.5t47 85.5t31.5 179l35 299h-154v207l152 12h27l10 88q25 227 120 325.5t296 98.5q37 0 90.5 -11.5t85.5 -25.5l-58 -225q-5 2 -19 7t-22.5 7.5t-23.5 5t-29 2.5q-67 0 -104 -42t-45 -117l-15 -113h211v-219h-235l-47 -387 q-9 -79 -24.5 -140t-44 -119t-69.5 -96t-104.5 -61t-144.5 -23q-124 0 -177 31z" />
<glyph unicode="&#x1a0;" horiz-adv-x="1400" d="M96 674q0 322 165.5 504t440.5 182q157 0 285 -64q63 14 93 42t30 83q0 43 -33 95l205 90q61 -68 61 -164q0 -185 -217 -246q183 -189 183 -522q0 -323 -167 -511t-440 -188t-439.5 188t-166.5 511zM406 674q0 -201 80 -319.5t216 -118.5t216.5 118.5t80.5 319.5 q0 199 -80 312.5t-217 113.5t-216.5 -113.5t-79.5 -312.5z" />
<glyph unicode="&#x1a1;" horiz-adv-x="1136" d="M74 508q0 123 41 225t110 168.5t158 102.5t186 36q100 0 195 -39q54 11 83.5 39t29.5 82q0 44 -31 95l205 90q59 -70 59 -164t-54 -155t-145 -87q152 -149 152 -393q0 -123 -41 -225.5t-110 -168.5t-157.5 -102.5t-185.5 -36.5t-186 36.5t-158 102.5t-110 168.5 t-41 225.5zM383 508q0 -135 47 -212t139 -77q91 0 139 77t48 212t-48 212t-139 77q-92 0 -139 -77t-47 -212z" />
<glyph unicode="&#x1af;" horiz-adv-x="1398" d="M150 618v717h303v-747q0 -190 57 -271t174 -81q118 0 177 81.5t59 270.5v747h143q48 1 82 9.5t61 38t27 79.5q0 42 -33 94l205 91q61 -73 61 -164q0 -109 -70 -172.5t-186 -85.5v-607q0 -331 -132 -487t-394 -156q-265 0 -399.5 156t-134.5 487z" />
<glyph unicode="&#x1b0;" horiz-adv-x="1163" d="M123 385v631h301v-592q0 -107 30 -150t97 -43q56 0 95 25.5t85 87.5v672h94q34 2 59.5 7t52 18t40.5 38.5t14 63.5q0 45 -30 94l204 90q60 -72 60 -164q0 -93 -52.5 -152.5t-140.5 -86.5v-924h-246l-22 141h-6q-69 -82 -145 -124t-175 -42q-315 0 -315 410z" />
<glyph unicode="&#x1cd;" horiz-adv-x="1173" d="M-12 0l418 1335h362l418 -1335h-320l-82 317h-407l-82 -317h-307zM236 1683h231l108 -124h9l108 124h232l-197 -245h-295zM438 553h285l-31 123q-16 59 -34.5 132t-40 162t-33.5 136h-9q-83 -354 -104 -430z" />
<glyph unicode="&#x1ce;" horiz-adv-x="1093" d="M96 283q0 161 136.5 250t435.5 120q-10 148 -160 148q-112 0 -270 -92l-107 198q220 133 434 133q198 0 301 -114t103 -344v-582h-246l-23 104h-6q-146 -129 -297 -129q-135 0 -218 88t-83 220zM258 1483h203l110 -162h9l108 162h203l-197 -307h-239zM383 305 q0 -96 117 -96q49 0 86.5 21t81.5 65v178q-153 -21 -219 -63.5t-66 -104.5z" />
<glyph unicode="&#x1cf;" horiz-adv-x="616" d="M-35 1683h230l110 -124h8l109 124h229l-196 -245h-293zM158 0v1335h301v-1335h-301z" />
<glyph unicode="&#x1d0;" horiz-adv-x="565" d="M-33 1483h203l109 -162h8l108 162h203l-195 -307h-239zM133 0v1016h301v-1016h-301z" />
<glyph unicode="&#x1d1;" horiz-adv-x="1400" d="M94 674q0 322 165.5 504t440.5 182q274 0 440.5 -182.5t166.5 -503.5q0 -323 -167 -511t-440 -188t-439.5 188t-166.5 511zM356 1683h232l108 -124h9l108 124h231l-196 -245h-295zM403 674q0 -201 80.5 -319.5t216.5 -118.5t216.5 118.5t80.5 319.5q0 199 -80 312.5 t-217 113.5t-217 -113.5t-80 -312.5z" />
<glyph unicode="&#x1d2;" horiz-adv-x="1136" d="M74 508q0 123 41 225t110 168.5t158 102.5t186 36t185.5 -36t157.5 -102.5t110 -168.5t41 -225t-41 -225.5t-110 -168.5t-157.5 -102.5t-185.5 -36.5t-186 36.5t-158 102.5t-110 168.5t-41 225.5zM252 1483h203l110 -162h8l109 162h203l-197 -307h-239zM383 508 q0 -135 47 -212t139 -77q91 0 139 77t48 212t-48 212t-139 77q-92 0 -139 -77t-47 -212z" />
<glyph unicode="&#x1d3;" horiz-adv-x="1361" d="M150 618v717h303v-747q0 -190 57 -271t174 -81q118 0 177 81.5t59 270.5v747h290v-717q0 -331 -132 -487t-394 -156q-265 0 -399.5 156t-134.5 487zM338 1683h229l109 -124h8l111 124h229l-197 -245h-292z" />
<glyph unicode="&#x1d4;" horiz-adv-x="1163" d="M123 385v631h301v-592q0 -107 30 -150t97 -43q56 0 95 25.5t85 87.5v672h301v-1016h-246l-22 141h-6q-69 -82 -145 -124t-175 -42q-315 0 -315 410zM268 1483h203l109 -162h8l108 162h203l-194 -307h-240z" />
<glyph unicode="&#x1d5;" horiz-adv-x="1361" d="M150 618v717h303v-747q0 -190 57 -271t174 -81q118 0 177 81.5t59 270.5v747h290v-717q0 -331 -132 -487t-394 -156q-265 0 -399.5 156t-134.5 487zM352 1561q0 53 35 89t90 36t91 -36t36 -89q0 -54 -36 -90.5t-91 -36.5t-90 36t-35 91zM391 1786v141h580v-141h-580z M758 1561q0 53 35 89t90 36q56 0 91.5 -36t35.5 -89q0 -55 -35.5 -91t-91.5 -36q-55 0 -90 36t-35 91z" />
<glyph unicode="&#x1d6;" horiz-adv-x="1163" d="M123 385v631h301v-592q0 -107 30 -150t97 -43q56 0 95 25.5t85 87.5v672h301v-1016h-246l-22 141h-6q-69 -82 -145 -124t-175 -42q-315 0 -315 410zM254 1294q0 54 36 90.5t91 36.5t91 -36.5t36 -90.5q0 -53 -36 -89t-91 -36t-91 36t-36 89zM301 1548v142h565v-142h-565z M659 1294q0 54 36 90.5t91 36.5t91 -36.5t36 -90.5q0 -53 -36 -89t-91 -36t-91 36t-36 89z" />
<glyph unicode="&#x1d7;" horiz-adv-x="1361" d="M150 618v717h303v-747q0 -190 57 -271t174 -81q118 0 177 81.5t59 270.5v747h290v-717q0 -331 -132 -487t-394 -156q-265 0 -399.5 156t-134.5 487zM352 1561q0 53 35 89t90 36t91 -36t36 -89q0 -54 -36 -90.5t-91 -36.5t-90 36t-35 91zM526 1749l168 246h314l-242 -246 h-240zM758 1561q0 53 35 89t90 36q56 0 91.5 -36t35.5 -89q0 -55 -35.5 -91t-91.5 -36q-55 0 -90 36t-35 91z" />
<glyph unicode="&#x1d8;" horiz-adv-x="1163" d="M123 385v631h301v-592q0 -107 30 -150t97 -43q56 0 95 25.5t85 87.5v672h301v-1016h-246l-22 141h-6q-69 -82 -145 -124t-175 -42q-315 0 -315 410zM254 1294q0 54 36 90.5t91 36.5t91 -36.5t36 -90.5q0 -53 -36 -89t-91 -36t-91 36t-36 89zM444 1509l170 228h258 l-235 -228h-193zM659 1294q0 54 36 90.5t91 36.5t91 -36.5t36 -90.5q0 -53 -36 -89t-91 -36t-91 36t-36 89z" />
<glyph unicode="&#x1d9;" horiz-adv-x="1361" d="M150 618v717h303v-747q0 -190 57 -271t174 -81q118 0 177 81.5t59 270.5v747h290v-717q0 -331 -132 -487t-394 -156q-265 0 -399.5 156t-134.5 487zM338 1995h229l109 -123h8l111 123h229l-197 -246h-292zM352 1561q0 53 35 89t90 36t91 -36t36 -89q0 -54 -36 -90.5 t-91 -36.5t-90 36t-35 91zM758 1561q0 53 35 89t90 36q56 0 91.5 -36t35.5 -89q0 -55 -35.5 -91t-91.5 -36q-55 0 -90 36t-35 91z" />
<glyph unicode="&#x1da;" horiz-adv-x="1163" d="M123 385v631h301v-592q0 -107 30 -150t97 -43q56 0 95 25.5t85 87.5v672h301v-1016h-246l-22 141h-6q-69 -82 -145 -124t-175 -42q-315 0 -315 410zM254 1294q0 54 36 90.5t91 36.5t91 -36.5t36 -90.5q0 -53 -36 -89t-91 -36t-91 36t-36 89zM283 1737h202l95 -119h8 l94 119h205l-176 -228h-254zM659 1294q0 54 36 90.5t91 36.5t91 -36.5t36 -90.5q0 -53 -36 -89t-91 -36t-91 36t-36 89z" />
<glyph unicode="&#x1db;" horiz-adv-x="1361" d="M150 618v717h303v-747q0 -190 57 -271t174 -81q118 0 177 81.5t59 270.5v747h290v-717q0 -331 -132 -487t-394 -156q-265 0 -399.5 156t-134.5 487zM352 1561q0 53 35 89t90 36t91 -36t36 -89q0 -54 -36 -90.5t-91 -36.5t-90 36t-35 91zM352 1995h316l166 -246h-240z M758 1561q0 53 35 89t90 36q56 0 91.5 -36t35.5 -89q0 -55 -35.5 -91t-91.5 -36q-55 0 -90 36t-35 91z" />
<glyph unicode="&#x1dc;" horiz-adv-x="1163" d="M123 385v631h301v-592q0 -107 30 -150t97 -43q56 0 95 25.5t85 87.5v672h301v-1016h-246l-22 141h-6q-69 -82 -145 -124t-175 -42q-315 0 -315 410zM254 1294q0 54 36 90.5t91 36.5t91 -36.5t36 -90.5q0 -53 -36 -89t-91 -36t-91 36t-36 89zM295 1737h258l170 -228h-193z M659 1294q0 54 36 90.5t91 36.5t91 -36.5t36 -90.5q0 -53 -36 -89t-91 -36t-91 36t-36 89z" />
<glyph unicode="&#x1e6;" horiz-adv-x="1306" d="M94 659q0 162 52 295.5t141.5 221.5t209 136t255.5 48q129 0 233.5 -49t179.5 -125l-166 -187q-56 51 -109.5 76t-133.5 25q-158 0 -255.5 -116t-97.5 -314q0 -208 95 -321t280 -113q95 0 144 40v230h-222v246h488v-615q-74 -71 -193.5 -116.5t-253.5 -45.5 q-136 0 -253 44.5t-205 128.5t-138.5 215.5t-50.5 295.5zM408 1683h231l109 -124h8l108 124h232l-197 -245h-295z" />
<glyph unicode="&#x1e7;" horiz-adv-x="1093" d="M70 -174q0 123 145 205v8q-94 62 -94 172q0 54 32 104.5t83 85.5v9q-59 40 -98.5 110t-39.5 154q0 89 34.5 160t93.5 115t133.5 67.5t158.5 23.5q90 0 158 -24h371v-219h-162q33 -57 33 -133q0 -167 -111.5 -254.5t-288.5 -87.5q-59 0 -123 20q-21 -18 -29 -34t-8 -42 q0 -39 35.5 -57.5t118.5 -18.5h164q192 0 289.5 -62t97.5 -196q0 -160 -154.5 -262t-412.5 -102q-123 0 -216.5 26t-151.5 85.5t-58 146.5zM199 1483h202l109 -162h8l111 162h202l-196 -307h-240zM317 -127q0 -56 61.5 -86.5t164.5 -30.5q100 0 166.5 36t66.5 89 q0 45 -37.5 62.5t-117.5 17.5h-105q-94 0 -143 12q-56 -50 -56 -100zM379 674q0 -82 38.5 -126t100.5 -44t100.5 44t38.5 126q0 77 -38.5 120.5t-100.5 43.5t-100.5 -42.5t-38.5 -121.5z" />
<glyph unicode="&#x1ea;" horiz-adv-x="1400" d="M94 674q0 322 165.5 504t440.5 182q274 0 440.5 -182.5t166.5 -503.5q0 -139 -28.5 -248.5t-85.5 -190.5t-132 -139.5t-178 -105.5q-72 -32 -109 -79.5t-37 -94.5q0 -37 25.5 -57.5t60.5 -20.5q33 0 74 29l70 -152q-40 -31 -100.5 -51.5t-112.5 -20.5q-102 0 -169 51.5 t-67 141.5q0 132 129 244q-255 19 -404 203t-149 491zM403 674q0 -201 80.5 -319.5t216.5 -118.5t216.5 118.5t80.5 319.5q0 199 -80 312.5t-217 113.5t-217 -113.5t-80 -312.5z" />
<glyph unicode="&#x1eb;" horiz-adv-x="1136" d="M74 508q0 123 41 225t110 168.5t158 102.5t186 36t185.5 -36t157.5 -102.5t110 -168.5t41 -225q0 -192 -85.5 -312t-246.5 -196q-70 -32 -103.5 -78.5t-33.5 -95.5q0 -39 25 -58.5t61 -19.5q32 0 74 25l61 -135q-37 -30 -96.5 -49t-110.5 -19q-95 0 -156 48.5t-61 137.5 q0 69 34 127t79 97q-182 23 -306 164.5t-124 363.5zM383 508q0 -135 47 -212t139 -77q91 0 139 77t48 212t-48 212t-139 77q-92 0 -139 -77t-47 -212z" />
<glyph unicode="&#x218;" horiz-adv-x="1138" d="M72 168l172 207q74 -64 161 -101.5t168 -37.5q92 0 139.5 34t47.5 95q0 29 -9.5 49.5t-39.5 40t-49 28.5t-74 32l-21 9l-174 74q-116 47 -192 138t-76 227q0 168 134 282.5t341 114.5q118 0 231.5 -45.5t198.5 -130.5l-153 -191q-138 107 -277 107q-79 0 -124.5 -32 t-45.5 -89q0 -27 12 -48.5t40 -39t53.5 -29.5t72.5 -31q5 -2 8 -3.5t8 -3t9 -3.5l172 -69q128 -52 196 -140t68 -223q0 -83 -34.5 -158t-97.5 -132t-159.5 -90.5t-212.5 -33.5q-133 0 -263.5 50t-229.5 143zM360 -348q170 17 170 76q0 28 -21 45.5t-67 29.5l58 111 q134 -13 191 -53.5t57 -118.5q0 -67 -52 -114t-131 -69.5t-182 -27.5z" />
<glyph unicode="&#x219;" horiz-adv-x="907" d="M43 117l135 188q139 -106 262 -106q129 0 129 86q0 14 -5 26.5t-18.5 24t-24 19.5t-35 19t-37 16t-44 17t-43.5 17q-268 102 -268 299q0 142 106.5 229.5t282.5 87.5q187 0 359 -129l-135 -180q-120 86 -215 86q-115 0 -115 -80q0 -14 5 -25.5t17 -22t22.5 -18t33 -17.5 t35 -15t42.5 -15.5t43 -15.5q45 -16 79 -32t73 -42.5t64 -56.5t42 -75t17 -99q0 -143 -110.5 -235.5t-307.5 -92.5q-99 0 -205.5 39t-183.5 103zM264 -348q170 17 170 76q0 28 -21 45.5t-67 29.5l57 111q134 -13 191 -53.5t57 -118.5q0 -67 -51.5 -114t-130.5 -69.5 t-182 -27.5z" />
<glyph unicode="&#x21a;" horiz-adv-x="1138" d="M51 1081v254h1036v-254h-366v-1081h-303v1081h-367zM358 -348q170 17 170 76q0 28 -21 45.5t-67 29.5l58 111q134 -13 190.5 -53.5t56.5 -118.5q0 -67 -51.5 -114t-130.5 -69.5t-182 -27.5z" />
<glyph unicode="&#x21b;" horiz-adv-x="784" d="M35 780v224l155 12l35 270h250v-270h244v-236h-244v-407q0 -162 131 -162q42 0 96 20l48 -219q-123 -37 -226 -37q-181 0 -265.5 104t-84.5 290v411h-139zM270 -348q170 17 170 76q0 28 -21 45.5t-67 29.5l58 111q134 -13 190.5 -53.5t56.5 -118.5q0 -67 -51.5 -114 t-130.5 -69.5t-182 -27.5z" />
<glyph unicode="&#x237;" horiz-adv-x="569" d="M-104 -373l53 221q47 -14 80 -14q59 0 82.5 38.5t23.5 125.5v1018h301v-1010q0 -87 -18.5 -157.5t-58.5 -128t-112.5 -89.5t-172.5 -32q-106 0 -178 28z" />
<glyph unicode="&#x243;" horiz-adv-x="1286" d="M53 358v134l152 12v831h459q491 0 491 -321q0 -91 -56.5 -163.5t-168.5 -100.5v-9q291 -57 291 -331q0 -83 -26.5 -151t-73 -115.5t-112.5 -80t-143 -48t-166 -15.5h-495v358h-152zM508 215h168q123 0 189.5 56t66.5 161q0 203 -256 203h-168v-131h258v-146h-258v-143z M508 813h141q107 0 162 44t55 122q0 139 -215 139h-143v-305z" />
<glyph unicode="&#x251;" horiz-adv-x="1173" d="M80 508q0 120 37 222.5t97.5 169t137 103.5t156.5 37q148 0 264 -125h8l25 101h235v-1016h-245l-21 100h-8q-56 -56 -127.5 -90.5t-142.5 -34.5q-190 0 -303 143t-113 390zM389 512q0 -291 184 -291q100 0 166 92v416q-71 66 -168 66q-77 0 -129.5 -73t-52.5 -210z" />
<glyph unicode="&#x259;" horiz-adv-x="1060" d="M74 467q0 52 12 127h608q-33 217 -233 217q-107 0 -221 -68l-101 183q176 114 373 114q206 0 340.5 -144.5t134.5 -387.5q0 -120 -39 -221.5t-104.5 -169t-152 -105t-181.5 -37.5q-141 0 -240.5 65t-147.5 174.5t-48 252.5zM332 408q0 -96 42 -149.5t130 -53.5 q77 0 128.5 50t65.5 153h-366z" />
<glyph unicode="&#x261;" horiz-adv-x="1193" d="M90 526q0 113 37 211t97 163.5t137 102.5t157 37q153 0 260 -118h8l23 94h242v-1006q0 -197 -134 -302t-382 -105q-89 0 -192 29t-187 83l98 199q138 -76 281 -76q198 0 215 164l8 127q-114 -102 -252 -102q-188 0 -302 139t-114 360zM395 530q0 -125 50 -193.5 t139 -68.5q50 0 88.5 22t77.5 75v364q-71 66 -168 66q-79 0 -133 -71t-54 -194z" />
<glyph unicode="&#x2b9;" horiz-adv-x="614" d="M164 727l43 678h301l-53 -297l-97 -381h-194z" />
<glyph unicode="&#x2bb;" horiz-adv-x="614" d="M113 961q0 297 290 438l66 -131q-94 -47 -139 -108.5t-45 -151.5q6 2 20 2q66 0 112 -41.5t46 -108.5q0 -75 -44.5 -121.5t-113.5 -46.5q-94 0 -143 70.5t-49 198.5z" />
<glyph unicode="&#x2bc;" horiz-adv-x="614" d="M145 852q95 47 140 108.5t45 151.5q-6 -2 -19 -2q-67 0 -112 41t-45 109q0 76 43.5 121.5t113.5 45.5q93 0 143 -70t50 -198q0 -295 -293 -438z" />
<glyph unicode="&#x2be;" horiz-adv-x="335" d="M53 1122v111q117 0 117 98q0 99 -117 99v110q129 6 196.5 -52t67.5 -157t-67.5 -157t-196.5 -52z" />
<glyph unicode="&#x2bf;" horiz-adv-x="344" d="M27 1331q0 100 67 157.5t197 51.5v-110q-117 0 -117 -99q0 -98 117 -98v-111q-130 -6 -197 51.5t-67 157.5z" />
<glyph unicode="&#x2c6;" horiz-adv-x="1136" d="M252 1176l197 307h239l197 -307h-203l-109 161h-8l-110 -161h-203z" />
<glyph unicode="&#x2c7;" horiz-adv-x="1136" d="M252 1483h203l110 -162h8l109 162h203l-197 -307h-239z" />
<glyph unicode="&#x2c8;" horiz-adv-x="301" d="M31 1516h241l-12 -410h-217z" />
<glyph unicode="&#x2c9;" horiz-adv-x="630" d="M33 1212v191h565v-191h-565z" />
<glyph unicode="&#x2ca;" horiz-adv-x="483" d="M74 1176l182 307h291l-254 -307h-219z" />
<glyph unicode="&#x2cb;" horiz-adv-x="483" d="M-66 1483h291l183 -307h-220z" />
<glyph unicode="&#x2cc;" horiz-adv-x="301" d="M31 -543l12 412h217l12 -412h-241z" />
<glyph unicode="&#x2d8;" horiz-adv-x="1136" d="M283 1460h168q18 -119 118 -119q51 0 80 32.5t37 86.5h168q-5 -120 -78 -202t-207 -82q-136 0 -208.5 82t-77.5 202z" />
<glyph unicode="&#x2d9;" horiz-adv-x="1136" d="M401 1323q0 69 47.5 113.5t120.5 44.5q72 0 119 -44.5t47 -113.5t-47 -113.5t-119 -44.5q-73 0 -120.5 44.5t-47.5 113.5z" />
<glyph unicode="&#x2da;" horiz-adv-x="1136" d="M338 1331q0 95 63.5 152t167.5 57q103 0 166.5 -57t63.5 -152t-63.5 -152t-166.5 -57q-104 0 -167.5 57t-63.5 152zM485 1331q0 -42 24 -69t60 -27q34 0 58 27t24 69t-24 69t-58 27q-36 0 -60 -27t-24 -69z" />
<glyph unicode="&#x2db;" horiz-adv-x="1136" d="M391 -244q0 81 46 146t100 102h168q-111 -89 -111 -178q0 -39 25 -58.5t61 -19.5t74 25l61 -135q-37 -30 -96.5 -49t-110.5 -19q-95 0 -156 48.5t-61 137.5z" />
<glyph unicode="&#x2dc;" horiz-adv-x="1136" d="M229 1178q15 135 71.5 205.5t139.5 70.5q47 0 95 -22.5t86.5 -45t62.5 -22.5q27 0 43.5 20.5t26.5 69.5h153q-15 -135 -71 -205.5t-140 -70.5q-47 0 -94.5 23t-85.5 46t-61 23q-28 0 -45 -21t-27 -71h-154z" />
<glyph unicode="&#x2dd;" horiz-adv-x="1136" d="M311 1174l142 309h239l-196 -309h-185zM662 1174l141 309h237l-194 -309h-184z" />
<glyph unicode="&#x300;" d="M-305 1483h291l182 -307h-219z" />
<glyph unicode="&#x301;" d="M-168 1176l182 307h291l-254 -307h-219z" />
<glyph unicode="&#x302;" d="M-315 1176l196 307h238l196 -307h-202l-109 161h-8l-109 -161h-202z" />
<glyph unicode="&#x303;" d="M-340 1178q15 136 72 206t141 70q47 0 95 -22.5t86 -45t61 -22.5q26 0 42.5 20.5t28.5 69.5h154q-15 -135 -72 -205.5t-141 -70.5q-47 0 -94.5 23t-85.5 46t-62 23q-27 0 -43 -21t-28 -71h-154z" />
<glyph unicode="&#x304;" d="M-283 1212v191h566v-191h-566z" />
<glyph unicode="&#x306;" d="M-285 1460h168q6 -53 36 -86t81 -33t81 33t36 86h168q-5 -120 -78 -202t-207 -82t-207 82t-78 202z" />
<glyph unicode="&#x307;" d="M-166 1323q0 69 46.5 113.5t119.5 44.5t119.5 -44.5t46.5 -113.5t-46.5 -113.5t-119.5 -44.5t-119.5 44.5t-46.5 113.5z" />
<glyph unicode="&#x308;" d="M-346 1313q0 61 40 101t103 40t103.5 -40.5t40.5 -100.5q0 -62 -40.5 -103t-103.5 -41t-103 41t-40 103zM59 1313q0 60 40.5 100.5t103.5 40.5t103 -40t40 -101q0 -62 -40 -103t-103 -41t-103.5 41t-40.5 103z" />
<glyph unicode="&#x309;" d="M-166 1389l35 151q182 -6 263 -53.5t81 -134.5q0 -98 -79.5 -150.5t-205.5 -60.5l-22 119q90 15 90 61q0 60 -162 68z" />
<glyph unicode="&#x30a;" d="M-231 1331q0 95 64 152t167 57t167 -57t64 -152t-64 -152t-167 -57t-167 57t-64 152zM-84 1331q0 -42 24 -69t60 -27t60 27t24 69t-24 69t-60 27t-60 -27t-24 -69z" />
<glyph unicode="&#x30b;" d="M-256 1174l139 309h240l-195 -309h-184zM92 1174l141 309h240l-194 -309h-187z" />
<glyph unicode="&#x30c;" d="M-315 1483h202l109 -162h8l109 162h202l-196 -307h-238z" />
<glyph unicode="&#x30f;" d="M-473 1483h240l141 -309h-187zM-123 1483h240l139 -309h-184z" />
<glyph unicode="&#x312;" d="M-139 1284q0 89 50 157t152 107l46 -92q-115 -41 -127 -121q4 2 14 2q45 0 76.5 -29t31.5 -77q0 -53 -31 -85t-77 -32q-135 0 -135 170z" />
<glyph unicode="&#x313;" d="M-115 1200q116 44 127 123q-4 -2 -16 -2q-45 0 -76 28t-31 76q0 54 31.5 85.5t77.5 31.5q66 0 100.5 -43.5t34.5 -126.5q0 -88 -51 -156.5t-152 -107.5z" />
<glyph unicode="&#x31b;" d="M-20 995q68 12 102.5 39.5t34.5 87.5q0 43 -33 95l207 90q59 -70 59 -164q0 -65 -27.5 -116t-76 -82.5t-109.5 -49t-135 -21.5z" />
<glyph unicode="&#x323;" d="M-166 -305q0 69 46.5 113.5t119.5 44.5t119.5 -44.5t46.5 -113.5t-46.5 -113.5t-119.5 -44.5t-119.5 44.5t-46.5 113.5z" />
<glyph unicode="&#x324;" d="M-346 -299q0 61 40.5 102t102.5 41t103 -41t41 -102q0 -62 -40.5 -102.5t-103.5 -40.5t-103 40.5t-40 102.5zM59 -299q0 61 41 102t103 41t102.5 -41t40.5 -102q0 -62 -40 -102.5t-103 -40.5t-103.5 40.5t-40.5 102.5z" />
<glyph unicode="&#x326;" d="M-211 -348q170 17 170 76q0 28 -21.5 45.5t-68.5 29.5l57 111q136 -13 192 -53.5t56 -118.5q0 -98 -101.5 -150.5t-260.5 -60.5z" />
<glyph unicode="&#x327;" d="M-211 -332q170 17 170 90q0 56 -121 86l82 164h176l-41 -96q119 -39 119 -152q0 -68 -51 -115.5t-129.5 -70t-181.5 -27.5z" />
<glyph unicode="&#x328;" d="M-176 -244q0 81 45 146t98 102h170q-110 -85 -110 -178q0 -39 25 -58.5t61 -19.5q33 0 71 25l64 -135q-39 -30 -98.5 -49t-108.5 -19q-95 0 -156 48.5t-61 137.5z" />
<glyph unicode="&#x32e;" d="M-285 -145h168q6 -54 35.5 -87.5t81.5 -33.5t81.5 33.5t35.5 87.5h168q-5 -122 -77.5 -203.5t-207.5 -81.5t-207.5 81.5t-77.5 203.5z" />
<glyph unicode="&#x331;" d="M-283 -195h566v-192h-566v192z" />
<glyph unicode="&#x3c0;" horiz-adv-x="1241" d="M37 778v226l151 12h998v-238h-137v-467q0 -47 17.5 -69.5t43.5 -22.5q23 0 41 4l35 -221q-59 -27 -156 -27q-151 0 -216.5 91t-65.5 258v454h-236l-2 -778h-297v778h-176z" />
<glyph unicode="&#x1e06;" horiz-adv-x="1239" d="M158 0v1335h456q492 0 492 -331q0 -97 -56.5 -178.5t-166.5 -110.5v-8q288 -53 288 -314q0 -99 -40 -175.5t-111 -123.5t-163.5 -70.5t-203.5 -23.5h-495zM360 -195h566v-192h-566v192zM459 233h170q248 0 248 183q0 87 -61 127.5t-187 40.5h-170v-351zM459 797h141 q107 0 159 43t52 121q0 74 -51 107.5t-158 33.5h-143v-305z" />
<glyph unicode="&#x1e07;" horiz-adv-x="1173" d="M133 0v1436h301v-353l-8 -155q125 112 268 112q184 0 292 -140t108 -374q0 -127 -36 -233t-96 -174.5t-136.5 -106t-159.5 -37.5q-143 0 -265 131h-8l-24 -106h-236zM317 -195h566v-192h-566v192zM434 287q71 -66 162 -66q83 0 135.5 75t52.5 224q0 275 -176 275 q-90 0 -174 -93v-415z" />
<glyph unicode="&#x1e0c;" horiz-adv-x="1300" d="M158 0v1335h377q317 0 493 -163.5t176 -497.5t-175 -504t-478 -170h-393zM459 244h57q181 0 280 101t99 329q0 117 -26.5 199.5t-78.5 129.5t-118.5 68t-155.5 21h-57v-848zM473 -305q0 69 47.5 113.5t120.5 44.5q72 0 119 -44.5t47 -113.5t-47 -113.5t-119 -44.5 q-73 0 -120.5 44.5t-47.5 113.5z" />
<glyph unicode="&#x1e0d;" horiz-adv-x="1173" d="M80 508q0 121 35.5 223t95 168.5t135 103.5t156.5 37q80 0 136.5 -26t113.5 -80l-13 156v346h301v-1436h-245l-21 100h-8q-56 -56 -127.5 -90.5t-142.5 -34.5q-190 0 -303 143t-113 390zM389 512q0 -291 184 -291q100 0 166 92v416q-71 66 -168 66q-77 0 -129.5 -73 t-52.5 -210zM473 -305q0 69 46.5 113.5t119.5 44.5t120.5 -44.5t47.5 -113.5t-47.5 -113.5t-120.5 -44.5t-119.5 44.5t-46.5 113.5z" />
<glyph unicode="&#x1e0e;" horiz-adv-x="1300" d="M158 0v1335h377q317 0 493 -163.5t176 -497.5t-175 -504t-478 -170h-393zM356 -195h568v-192h-568v192zM459 244h57q181 0 280 101t99 329q0 117 -26.5 199.5t-78.5 129.5t-118.5 68t-155.5 21h-57v-848z" />
<glyph unicode="&#x1e0f;" horiz-adv-x="1173" d="M80 508q0 121 35.5 223t95 168.5t135 103.5t156.5 37q80 0 136.5 -26t113.5 -80l-13 156v346h301v-1436h-245l-21 100h-8q-56 -56 -127.5 -90.5t-142.5 -34.5q-190 0 -303 143t-113 390zM356 -195h566v-192h-566v192zM389 512q0 -291 184 -291q100 0 166 92v416 q-71 66 -168 66q-77 0 -129.5 -73t-52.5 -210z" />
<glyph unicode="&#x1e16;" horiz-adv-x="1122" d="M158 0v1335h835v-254h-534v-268h454v-252h-454v-307h555v-254h-856zM301 1475v190h578v-190h-578zM436 1749l166 246h316l-242 -246h-240z" />
<glyph unicode="&#x1e17;" horiz-adv-x="1060" d="M74 508q0 120 40.5 222t107.5 168.5t153 104t178 37.5q209 0 320.5 -135.5t111.5 -351.5q0 -77 -12 -127h-608q20 -112 89.5 -166.5t174.5 -54.5q109 0 219 67l100 -182q-78 -54 -173.5 -84.5t-186.5 -30.5q-224 0 -369 143.5t-145 389.5zM270 1212v191h566v-191h-566z M362 612h367q0 93 -41.5 146t-128.5 53q-74 0 -128.5 -51t-68.5 -148zM414 1509l170 228h258l-236 -228h-192z" />
<glyph unicode="&#x1e20;" horiz-adv-x="1306" d="M94 659q0 162 52 295.5t141.5 221.5t209 136t255.5 48q129 0 233.5 -49t179.5 -125l-166 -187q-56 51 -109.5 76t-133.5 25q-158 0 -255.5 -116t-97.5 -314q0 -208 95 -321t280 -113q95 0 144 40v230h-222v246h488v-615q-74 -71 -193.5 -116.5t-253.5 -45.5 q-136 0 -253 44.5t-205 128.5t-138.5 215.5t-50.5 295.5zM463 1475v190h577v-190h-577z" />
<glyph unicode="&#x1e21;" horiz-adv-x="1093" d="M70 -174q0 123 145 205v8q-94 62 -94 172q0 54 32 104.5t83 85.5v9q-59 40 -98.5 110t-39.5 154q0 89 34.5 160t93.5 115t133.5 67.5t158.5 23.5q90 0 158 -24h371v-219h-162q33 -57 33 -133q0 -167 -111.5 -254.5t-288.5 -87.5q-59 0 -123 20q-21 -18 -29 -34t-8 -42 q0 -39 35.5 -57.5t118.5 -18.5h164q192 0 289.5 -62t97.5 -196q0 -160 -154.5 -262t-412.5 -102q-123 0 -216.5 26t-151.5 85.5t-58 146.5zM231 1212v191h566v-191h-566zM317 -127q0 -56 61.5 -86.5t164.5 -30.5q100 0 166.5 36t66.5 89q0 45 -37.5 62.5t-117.5 17.5h-105 q-94 0 -143 12q-56 -50 -56 -100zM379 674q0 -82 38.5 -126t100.5 -44t100.5 44t38.5 126q0 77 -38.5 120.5t-100.5 43.5t-100.5 -42.5t-38.5 -121.5z" />
<glyph unicode="&#x1e24;" horiz-adv-x="1380" d="M158 0v1335h301v-514h461v514h303v-1335h-303v557h-461v-557h-301zM522 -305q0 69 46.5 113.5t119.5 44.5t119.5 -44.5t46.5 -113.5t-46.5 -113.5t-119.5 -44.5t-119.5 44.5t-46.5 113.5z" />
<glyph unicode="&#x1e25;" horiz-adv-x="1169" d="M133 0v1436h301v-353l-14 -182q155 139 313 139q161 0 238.5 -106t77.5 -303v-631h-301v592q0 107 -29.5 149.5t-95.5 42.5q-53 0 -93.5 -23t-95.5 -75v-686h-301zM434 -305q0 69 47 113.5t119 44.5q73 0 120.5 -44.5t47.5 -113.5t-47.5 -113.5t-120.5 -44.5 q-72 0 -119 44.5t-47 113.5z" />
<glyph unicode="&#x1e2a;" horiz-adv-x="1380" d="M158 0v1335h301v-514h461v514h303v-1335h-303v557h-461v-557h-301zM403 -145h168q6 -54 35.5 -87.5t81.5 -33.5t81.5 33.5t35.5 87.5h168q-5 -122 -77.5 -203.5t-207.5 -81.5t-207.5 81.5t-77.5 203.5z" />
<glyph unicode="&#x1e2b;" horiz-adv-x="1169" d="M133 0v1436h301v-353l-14 -182q155 139 313 139q161 0 238.5 -106t77.5 -303v-631h-301v592q0 107 -29.5 149.5t-95.5 42.5q-53 0 -93.5 -23t-95.5 -75v-686h-301zM315 -145h168q6 -54 35.5 -87.5t81.5 -33.5t81.5 33.5t35.5 87.5h168q-5 -122 -77.5 -203.5t-207.5 -81.5 t-207.5 81.5t-77.5 203.5z" />
<glyph unicode="&#x1e34;" horiz-adv-x="1257" d="M158 0v1335h301v-547h8l397 547h332l-403 -532l477 -803h-330l-326 563l-155 -205v-358h-301zM395 -195h568v-192h-568v192z" />
<glyph unicode="&#x1e35;" horiz-adv-x="1122" d="M133 0v1436h293v-824h8l322 404h327l-356 -418l383 -598h-326l-229 395l-129 -145v-250h-293zM319 -195h568v-192h-568v192z" />
<glyph unicode="&#x1e36;" horiz-adv-x="1060" d="M158 0v1335h301v-1081h528v-254h-829zM428 -305q0 69 46.5 113.5t119.5 44.5t120.5 -44.5t47.5 -113.5t-47.5 -113.5t-120.5 -44.5t-119.5 44.5t-46.5 113.5z" />
<glyph unicode="&#x1e37;" horiz-adv-x="585" d="M133 315v1121h301v-1133q0 -43 15.5 -63.5t37.5 -20.5q21 0 37 4l37 -223q-59 -25 -151 -25q-148 0 -212.5 88t-64.5 252zM223 -305q0 69 47 113.5t119 44.5q73 0 120.5 -44.5t47.5 -113.5t-47.5 -113.5t-120.5 -44.5q-72 0 -119 44.5t-47 113.5z" />
<glyph unicode="&#x1e38;" horiz-adv-x="1060" d="M27 1475v190h579v-190h-579zM158 0v1335h301v-1081h528v-254h-829zM428 -305q0 69 46.5 113.5t119.5 44.5t120.5 -44.5t47.5 -113.5t-47.5 -113.5t-120.5 -44.5t-119.5 44.5t-46.5 113.5z" />
<glyph unicode="&#x1e39;" horiz-adv-x="585" d="M-2 1645v192h565v-192h-565zM133 315v1121h301v-1133q0 -43 15.5 -63.5t37.5 -20.5q21 0 37 4l37 -223q-59 -25 -151 -25q-148 0 -212.5 88t-64.5 252zM223 -305q0 69 47 113.5t119 44.5q73 0 120.5 -44.5t47.5 -113.5t-47.5 -113.5t-120.5 -44.5q-72 0 -119 44.5 t-47 113.5z" />
<glyph unicode="&#x1e3a;" horiz-adv-x="1060" d="M158 0v1335h301v-1081h528v-254h-829zM311 -195h566v-192h-566v192z" />
<glyph unicode="&#x1e3b;" horiz-adv-x="585" d="M106 -195h566v-192h-566v192zM133 315v1121h301v-1133q0 -43 15.5 -63.5t37.5 -20.5q21 0 37 4l37 -223q-59 -25 -151 -25q-148 0 -212.5 88t-64.5 252z" />
<glyph unicode="&#x1e42;" horiz-adv-x="1560" d="M158 0v1335h319l223 -600l80 -233h8l80 233l217 600h318v-1335h-281v489q0 37 2.5 82.5t7.5 100t9 91.5t11 99.5t9 81.5h-8l-111 -309l-204 -518h-121l-205 518l-106 309h-9q37 -341 37 -455v-489h-276zM618 -305q0 69 46.5 113.5t119.5 44.5t119.5 -44.5t46.5 -113.5 t-46.5 -113.5t-119.5 -44.5t-119.5 44.5t-46.5 113.5z" />
<glyph unicode="&#x1e43;" horiz-adv-x="1755" d="M133 0v1016h246l20 -131h9q74 74 145 114.5t162 40.5q200 0 280 -170q80 82 154 126t166 44q160 0 238.5 -106.5t78.5 -302.5v-631h-301v592q0 107 -29.5 149.5t-95.5 42.5q-76 0 -174 -98v-686h-301v592q0 107 -29.5 149.5t-95.5 42.5q-78 0 -172 -98v-686h-301z M733 -305q0 69 46.5 113.5t119.5 44.5t120.5 -44.5t47.5 -113.5t-47.5 -113.5t-120.5 -44.5t-119.5 44.5t-46.5 113.5z" />
<glyph unicode="&#x1e44;" horiz-adv-x="1361" d="M158 0v1335h309l348 -663l131 -295h8q-2 29 -13.5 141t-17 193.5t-5.5 152.5v471h286v-1335h-309l-348 666l-131 290h-8q3 -40 13.5 -145t16.5 -186t6 -152v-473h-286zM508 1593q0 69 49.5 113.5t124.5 44.5q76 0 125 -44.5t49 -113.5t-49 -113t-125 -44q-75 0 -124.5 44 t-49.5 113z" />
<glyph unicode="&#x1e45;" horiz-adv-x="1171" d="M133 0v1016h246l20 -129h9q160 153 325 153q161 0 238.5 -106t77.5 -303v-631h-301v592q0 107 -29.5 149.5t-95.5 42.5q-53 0 -93.5 -23t-95.5 -75v-686h-301zM463 1323q0 69 47.5 113.5t120.5 44.5t119.5 -44.5t46.5 -113.5t-46.5 -113.5t-119.5 -44.5t-120.5 44.5 t-47.5 113.5z" />
<glyph unicode="&#x1e46;" horiz-adv-x="1361" d="M158 0v1335h309l348 -663l131 -295h8q-2 29 -13.5 141t-17 193.5t-5.5 152.5v471h286v-1335h-309l-348 666l-131 290h-8q3 -40 13.5 -145t16.5 -186t6 -152v-473h-286zM537 -305q0 69 47.5 113.5t120.5 44.5t119 -44.5t46 -113.5t-46 -113.5t-119 -44.5t-120.5 44.5 t-47.5 113.5z" />
<glyph unicode="&#x1e47;" horiz-adv-x="1171" d="M133 0v1016h246l20 -129h9q160 153 325 153q161 0 238.5 -106t77.5 -303v-631h-301v592q0 107 -29.5 149.5t-95.5 42.5q-53 0 -93.5 -23t-95.5 -75v-686h-301zM430 -305q0 69 47 113.5t119 44.5q73 0 120.5 -44.5t47.5 -113.5t-47.5 -113.5t-120.5 -44.5q-72 0 -119 44.5 t-47 113.5z" />
<glyph unicode="&#x1e48;" horiz-adv-x="1361" d="M158 0v1335h309l348 -663l131 -295h8q-2 29 -13.5 141t-17 193.5t-5.5 152.5v471h286v-1335h-309l-348 666l-131 290h-8q3 -40 13.5 -145t16.5 -186t6 -152v-473h-286zM420 -195h567v-192h-567v192z" />
<glyph unicode="&#x1e49;" horiz-adv-x="1171" d="M133 0v1016h246l20 -129h9q160 153 325 153q161 0 238.5 -106t77.5 -303v-631h-301v592q0 107 -29.5 149.5t-95.5 42.5q-53 0 -93.5 -23t-95.5 -75v-686h-301zM313 -195h566v-192h-566v192z" />
<glyph unicode="&#x1e52;" horiz-adv-x="1400" d="M94 674q0 322 165.5 504t440.5 182q274 0 440.5 -182.5t166.5 -503.5q0 -323 -167 -511t-440 -188t-439.5 188t-166.5 511zM403 674q0 -201 80.5 -319.5t216.5 -118.5t216.5 118.5t80.5 319.5q0 199 -80 312.5t-217 113.5t-217 -113.5t-80 -312.5zM410 1475v190h579v-190 h-579zM547 1749l166 246h313l-240 -246h-239z" />
<glyph unicode="&#x1e53;" horiz-adv-x="1136" d="M74 508q0 123 41 225t110 168.5t158 102.5t186 36t185.5 -36t157.5 -102.5t110 -168.5t41 -225t-41 -225.5t-110 -168.5t-157.5 -102.5t-185.5 -36.5t-186 36.5t-158 102.5t-110 168.5t-41 225.5zM287 1212v191h565v-191h-565zM383 508q0 -135 47 -212t139 -77 q91 0 139 77t48 212t-48 212t-139 77q-92 0 -139 -77t-47 -212zM430 1509l170 228h258l-237 -228h-191z" />
<glyph unicode="&#x1e5a;" horiz-adv-x="1261" d="M158 0v1335h481q88 0 162.5 -12.5t140.5 -42.5t112 -76.5t72.5 -118.5t26.5 -165q0 -143 -63 -239.5t-175 -145.5l304 -535h-338l-256 481h-166v-481h-301zM459 721h155q119 0 181.5 50.5t62.5 148.5q0 95 -60.5 135.5t-183.5 40.5h-155v-375zM504 -305q0 69 46.5 113.5 t119.5 44.5t120.5 -44.5t47.5 -113.5t-47.5 -113.5t-120.5 -44.5t-119.5 44.5t-46.5 113.5z" />
<glyph unicode="&#x1e5b;" horiz-adv-x="815" d="M115 -305q0 69 47.5 113.5t120.5 44.5t119.5 -44.5t46.5 -113.5t-46.5 -113.5t-119.5 -44.5t-120.5 44.5t-47.5 113.5zM133 0v1016h246l20 -178h9q54 99 130.5 150.5t157.5 51.5q73 0 121 -20l-49 -260q-59 16 -111 16q-64 0 -125 -45.5t-98 -140.5v-590h-301z" />
<glyph unicode="&#x1e5c;" horiz-adv-x="1261" d="M158 0v1335h481q88 0 162.5 -12.5t140.5 -42.5t112 -76.5t72.5 -118.5t26.5 -165q0 -143 -63 -239.5t-175 -145.5l304 -535h-338l-256 481h-166v-481h-301zM346 1475v190h578v-190h-578zM459 721h155q119 0 181.5 50.5t62.5 148.5q0 95 -60.5 135.5t-183.5 40.5h-155 v-375zM504 -305q0 69 46.5 113.5t119.5 44.5t120.5 -44.5t47.5 -113.5t-47.5 -113.5t-120.5 -44.5t-119.5 44.5t-46.5 113.5z" />
<glyph unicode="&#x1e5d;" horiz-adv-x="815" d="M115 -305q0 69 47.5 113.5t120.5 44.5t119.5 -44.5t46.5 -113.5t-46.5 -113.5t-119.5 -44.5t-120.5 44.5t-47.5 113.5zM133 0v1016h246l20 -178h9q54 99 130.5 150.5t157.5 51.5q73 0 121 -20l-49 -260q-59 16 -111 16q-64 0 -125 -45.5t-98 -140.5v-590h-301zM223 1212 v191h565v-191h-565z" />
<glyph unicode="&#x1e5e;" horiz-adv-x="1261" d="M158 0v1335h481q88 0 162.5 -12.5t140.5 -42.5t112 -76.5t72.5 -118.5t26.5 -165q0 -143 -63 -239.5t-175 -145.5l304 -535h-338l-256 481h-166v-481h-301zM387 -195h565v-192h-565v192zM459 721h155q119 0 181.5 50.5t62.5 148.5q0 95 -60.5 135.5t-183.5 40.5h-155 v-375z" />
<glyph unicode="&#x1e5f;" horiz-adv-x="815" d="M-2 -195h567v-192h-567v192zM133 0v1016h246l20 -178h9q54 99 130.5 150.5t157.5 51.5q73 0 121 -20l-49 -260q-59 16 -111 16q-64 0 -125 -45.5t-98 -140.5v-590h-301z" />
<glyph unicode="&#x1e60;" horiz-adv-x="1138" d="M72 168l172 207q74 -64 161 -101.5t168 -37.5q92 0 139.5 34t47.5 95q0 29 -9.5 49.5t-39.5 40t-49 28.5t-74 32l-21 9l-174 74q-116 47 -192 138t-76 227q0 168 134 282.5t341 114.5q118 0 231.5 -45.5t198.5 -130.5l-153 -191q-138 107 -277 107q-79 0 -124.5 -32 t-45.5 -89q0 -27 12 -48.5t40 -39t53.5 -29.5t72.5 -31q5 -2 8 -3.5t8 -3t9 -3.5l172 -69q128 -52 196 -140t68 -223q0 -83 -34.5 -158t-97.5 -132t-159.5 -90.5t-212.5 -33.5q-133 0 -263.5 50t-229.5 143zM422 1593q0 69 49.5 113.5t124.5 44.5q76 0 125 -44.5t49 -113.5 t-49 -113t-125 -44q-75 0 -124.5 44t-49.5 113z" />
<glyph unicode="&#x1e61;" horiz-adv-x="907" d="M43 117l135 188q139 -106 262 -106q129 0 129 86q0 14 -5 26.5t-18.5 24t-24 19.5t-35 19t-37 16t-44 17t-43.5 17q-268 102 -268 299q0 142 106.5 229.5t282.5 87.5q187 0 359 -129l-135 -180q-120 86 -215 86q-115 0 -115 -80q0 -14 5 -25.5t17 -22t22.5 -18t33 -17.5 t35 -15t42.5 -15.5t43 -15.5q45 -16 79 -32t73 -42.5t64 -56.5t42 -75t17 -99q0 -143 -110.5 -235.5t-307.5 -92.5q-99 0 -205.5 39t-183.5 103zM315 1323q0 69 47.5 113.5t120.5 44.5t119.5 -44.5t46.5 -113.5t-46.5 -113.5t-119.5 -44.5t-120.5 44.5t-47.5 113.5z" />
<glyph unicode="&#x1e62;" horiz-adv-x="1138" d="M72 168l172 207q74 -64 161 -101.5t168 -37.5q92 0 139.5 34t47.5 95q0 29 -9.5 49.5t-39.5 40t-49 28.5t-74 32l-21 9l-174 74q-116 47 -192 138t-76 227q0 168 134 282.5t341 114.5q118 0 231.5 -45.5t198.5 -130.5l-153 -191q-138 107 -277 107q-79 0 -124.5 -32 t-45.5 -89q0 -27 12 -48.5t40 -39t53.5 -29.5t72.5 -31q5 -2 8 -3.5t8 -3t9 -3.5l172 -69q128 -52 196 -140t68 -223q0 -83 -34.5 -158t-97.5 -132t-159.5 -90.5t-212.5 -33.5q-133 0 -263.5 50t-229.5 143zM406 -305q0 69 46.5 113.5t118.5 44.5q73 0 120.5 -44.5 t47.5 -113.5t-47.5 -113.5t-120.5 -44.5q-72 0 -118.5 44.5t-46.5 113.5z" />
<glyph unicode="&#x1e63;" horiz-adv-x="907" d="M43 117l135 188q139 -106 262 -106q129 0 129 86q0 14 -5 26.5t-18.5 24t-24 19.5t-35 19t-37 16t-44 17t-43.5 17q-268 102 -268 299q0 142 106.5 229.5t282.5 87.5q187 0 359 -129l-135 -180q-120 86 -215 86q-115 0 -115 -80q0 -14 5 -25.5t17 -22t22.5 -18t33 -17.5 t35 -15t42.5 -15.5t43 -15.5q45 -16 79 -32t73 -42.5t64 -56.5t42 -75t17 -99q0 -143 -110.5 -235.5t-307.5 -92.5q-99 0 -205.5 39t-183.5 103zM309 -305q0 69 47 113.5t119 44.5q73 0 120.5 -44.5t47.5 -113.5t-47.5 -113.5t-120.5 -44.5q-72 0 -119 44.5t-47 113.5z" />
<glyph unicode="&#x1e6c;" horiz-adv-x="1138" d="M51 1081v254h1036v-254h-366v-1081h-303v1081h-367zM403 -305q0 69 47 113.5t119 44.5q73 0 120.5 -44.5t47.5 -113.5t-47.5 -113.5t-120.5 -44.5q-72 0 -119 44.5t-47 113.5z" />
<glyph unicode="&#x1e6d;" horiz-adv-x="784" d="M35 780v224l155 12l35 270h250v-270h244v-236h-244v-407q0 -162 131 -162q42 0 96 20l48 -219q-123 -37 -226 -37q-181 0 -265.5 104t-84.5 290v411h-139zM315 -305q0 69 47.5 113.5t120.5 44.5q72 0 119 -44.5t47 -113.5t-47 -113.5t-119 -44.5q-73 0 -120.5 44.5 t-47.5 113.5z" />
<glyph unicode="&#x1e6e;" horiz-adv-x="1138" d="M51 1081v254h1036v-254h-366v-1081h-303v1081h-367zM287 -195h565v-192h-565v192z" />
<glyph unicode="&#x1e6f;" horiz-adv-x="784" d="M35 780v224l155 12l35 270h250v-270h244v-236h-244v-407q0 -162 131 -162q42 0 96 20l48 -219q-123 -37 -226 -37q-181 0 -265.5 104t-84.5 290v411h-139zM199 -195h565v-192h-565v192z" />
<glyph unicode="&#x1e80;" horiz-adv-x="1665" d="M29 1335h309l92 -624q8 -67 26.5 -208.5t26.5 -213.5h9l79 422l144 624h256l143 -624l80 -422h8l55 422l93 624h288l-237 -1335h-379l-131 606q-24 107 -53 309h-9q-39 -236 -55 -309l-125 -606h-373zM502 1683h319l166 -245h-242z" />
<glyph unicode="&#x1e81;" horiz-adv-x="1589" d="M49 1016h299l98 -471q9 -54 24 -154.5t22 -146.5h8q41 231 59 301l113 471h260l115 -471q18 -74 63 -301h8q9 50 23.5 150t23.5 151l97 471h278l-244 -1016h-352l-92 406q-27 128 -55 296h-9q-36 -216 -51 -296l-90 -406h-344zM492 1483h290l183 -307h-222z" />
<glyph unicode="&#x1e82;" horiz-adv-x="1665" d="M29 1335h309l92 -624q8 -67 26.5 -208.5t26.5 -213.5h9l79 422l144 624h256l143 -624l80 -422h8l55 422l93 624h288l-237 -1335h-379l-131 606q-24 107 -53 309h-9q-39 -236 -55 -309l-125 -606h-373zM680 1438l166 245h319l-245 -245h-240z" />
<glyph unicode="&#x1e83;" horiz-adv-x="1589" d="M49 1016h299l98 -471q9 -54 24 -154.5t22 -146.5h8q41 231 59 301l113 471h260l115 -471q18 -74 63 -301h8q9 50 23.5 150t23.5 151l97 471h278l-244 -1016h-352l-92 406q-27 128 -55 296h-9q-36 -216 -51 -296l-90 -406h-344zM629 1176l182 307h291l-254 -307h-219z" />
<glyph unicode="&#x1e84;" horiz-adv-x="1665" d="M29 1335h309l92 -624q8 -67 26.5 -208.5t26.5 -213.5h9l79 422l144 624h256l143 -624l80 -422h8l55 422l93 624h288l-237 -1335h-379l-131 606q-24 107 -53 309h-9q-39 -236 -55 -309l-125 -606h-373zM487 1577q0 62 40.5 102.5t103.5 40.5t103 -40.5t40 -102.5 t-40 -102.5t-103 -40.5t-103.5 40.5t-40.5 102.5zM893 1577q0 62 40 102.5t103 40.5t103.5 -40.5t40.5 -102.5t-40.5 -102.5t-103.5 -40.5t-103 40.5t-40 102.5z" />
<glyph unicode="&#x1e85;" horiz-adv-x="1589" d="M49 1016h299l98 -471q9 -54 24 -154.5t22 -146.5h8q41 231 59 301l113 471h260l115 -471q18 -74 63 -301h8q9 50 23.5 150t23.5 151l97 471h278l-244 -1016h-352l-92 406q-27 128 -55 296h-9q-36 -216 -51 -296l-90 -406h-344zM451 1313q0 61 40.5 101t102.5 40 t102.5 -40t40.5 -101q0 -62 -40 -103t-103 -41t-103 41t-40 103zM856 1313q0 61 40 101t103 40t103.5 -40.5t40.5 -100.5q0 -62 -40.5 -103t-103.5 -41t-103 41t-40 103z" />
<glyph unicode="&#x1e8e;" horiz-adv-x="1075" d="M-16 1335h323l119 -307l109 -295h8q88 231 112 295l121 307h316l-404 -860v-475h-301v475zM362 1593q0 69 50 113.5t125 44.5q77 0 126.5 -44.5t49.5 -113.5t-49.5 -113t-126.5 -44q-75 0 -125 44t-50 113z" />
<glyph unicode="&#x1e8f;" horiz-adv-x="1067" d="M25 1016h303l145 -436q14 -44 80 -289h8q60 253 70 289l123 436h288l-352 -1026q-38 -101 -76.5 -169.5t-91 -119.5t-120 -74.5t-156.5 -23.5q-76 0 -144 20l54 230q58 -13 67 -13q133 0 178 133l15 54zM379 1323q0 69 47.5 113.5t120.5 44.5t119.5 -44.5t46.5 -113.5 t-46.5 -113.5t-119.5 -44.5t-120.5 44.5t-47.5 113.5z" />
<glyph unicode="&#x1e92;" horiz-adv-x="1107" d="M74 0v182l590 899h-535v254h905v-182l-590 -899h596v-254h-966zM410 -305q0 69 47.5 113.5t120.5 44.5q72 0 118.5 -44.5t46.5 -113.5t-46.5 -113.5t-118.5 -44.5q-73 0 -120.5 44.5t-47.5 113.5z" />
<glyph unicode="&#x1e93;" horiz-adv-x="942" d="M78 0v162l426 618h-379v236h754v-160l-426 -620h440v-236h-815zM336 -305q0 69 47 113.5t119 44.5q73 0 120.5 -44.5t47.5 -113.5t-47.5 -113.5t-120.5 -44.5q-72 0 -119 44.5t-47 113.5z" />
<glyph unicode="&#x1e97;" horiz-adv-x="784" d="M-4 1599q0 61 40.5 102.5t102.5 41.5t103 -41.5t41 -102.5q0 -62 -40.5 -102.5t-103.5 -40.5t-103 40.5t-40 102.5zM35 780v224l155 12l35 270h250v-270h244v-236h-244v-407q0 -162 131 -162q42 0 96 20l48 -219q-123 -37 -226 -37q-181 0 -265.5 104t-84.5 290v411h-139 zM401 1599q0 61 41 102.5t103 41.5t102.5 -41.5t40.5 -102.5q0 -62 -40 -102.5t-103 -40.5t-103.5 40.5t-40.5 102.5z" />
<glyph unicode="&#x1e9e;" horiz-adv-x="1443" d="M164 0v838q0 114 34.5 208t103.5 165t180.5 110t256.5 39q195 0 328 -101.5t180 -273.5l-221 -250q162 -51 250 -139t88 -231q0 -170 -110.5 -280t-305.5 -110q-123 0 -220 42t-161 106l158 184q88 -88 186 -88q66 0 105 41t39 107q0 140 -310 196l-20 176l223 256 q-29 53 -84 87t-133 34q-264 0 -264 -319v-797h-303z" />
<glyph unicode="&#x1ea0;" horiz-adv-x="1173" d="M-12 0l418 1335h362l418 -1335h-320l-82 317h-407l-82 -317h-307zM414 -305q0 69 46.5 113.5t119.5 44.5t120.5 -44.5t47.5 -113.5t-47.5 -113.5t-120.5 -44.5t-119.5 44.5t-46.5 113.5zM438 553h285l-31 123q-16 59 -34.5 132t-40 162t-33.5 136h-9q-83 -354 -104 -430z " />
<glyph unicode="&#x1ea1;" horiz-adv-x="1093" d="M96 283q0 161 136.5 250t435.5 120q-10 148 -160 148q-112 0 -270 -92l-107 198q220 133 434 133q198 0 301 -114t103 -344v-582h-246l-23 104h-6q-146 -129 -297 -129q-135 0 -218 88t-83 220zM373 -305q0 69 47.5 113.5t120.5 44.5q72 0 119 -44.5t47 -113.5 t-47 -113.5t-119 -44.5q-73 0 -120.5 44.5t-47.5 113.5zM383 305q0 -96 117 -96q49 0 86.5 21t81.5 65v178q-153 -21 -219 -63.5t-66 -104.5z" />
<glyph unicode="&#x1ea2;" horiz-adv-x="1173" d="M-12 0l418 1335h362l418 -1335h-320l-82 317h-407l-82 -317h-307zM414 1665l35 150q344 -8 344 -187q0 -99 -79 -151t-206 -62l-23 119q43 9 66.5 22.5t23.5 38.5q0 30 -37.5 47t-123.5 23zM438 553h285l-31 123q-16 59 -34.5 132t-40 162t-33.5 136h-9 q-83 -354 -104 -430z" />
<glyph unicode="&#x1ea3;" horiz-adv-x="1093" d="M96 283q0 161 136.5 250t435.5 120q-10 148 -160 148q-112 0 -270 -92l-107 198q220 133 434 133q198 0 301 -114t103 -344v-582h-246l-23 104h-6q-146 -129 -297 -129q-135 0 -218 88t-83 220zM383 305q0 -96 117 -96q49 0 86.5 21t81.5 65v178q-153 -21 -219 -63.5 t-66 -104.5zM408 1389l34 151q184 -6 265 -53.5t81 -134.5q0 -98 -79.5 -150.5t-206.5 -60.5l-23 119q92 14 92 61q0 60 -163 68z" />
<glyph unicode="&#x1ea4;" horiz-adv-x="1173" d="M-12 0l418 1335h362l418 -1335h-320l-82 317h-407l-82 -317h-307zM256 1438l195 233h260l192 -233h-213l-106 112h-9l-106 -112h-213zM438 553h285l-31 123q-16 59 -34.5 132t-40 162t-33.5 136h-9q-83 -354 -104 -430zM811 1577l141 246h232l-203 -246h-170z" />
<glyph unicode="&#x1ea5;" horiz-adv-x="1093" d="M96 283q0 161 136.5 250t435.5 120q-10 148 -160 148q-112 0 -270 -92l-107 198q220 133 434 133q198 0 301 -114t103 -344v-582h-246l-23 104h-6q-146 -129 -297 -129q-135 0 -218 88t-83 220zM289 1176l166 262h239l166 -262h-186l-94 133h-9l-96 -133h-186zM383 305 q0 -96 117 -96q49 0 86.5 21t81.5 65v178q-153 -21 -219 -63.5t-66 -104.5zM795 1323l139 242h223l-194 -242h-168z" />
<glyph unicode="&#x1ea6;" horiz-adv-x="1173" d="M-12 0l418 1335h362l418 -1335h-320l-82 317h-407l-82 -317h-307zM256 1438l195 233h260l192 -233h-213l-106 112h-9l-106 -112h-213zM438 553h285l-31 123q-16 59 -34.5 132t-40 162t-33.5 136h-9q-83 -354 -104 -430zM694 1823h232l141 -246h-172z" />
<glyph unicode="&#x1ea7;" horiz-adv-x="1093" d="M96 283q0 161 136.5 250t435.5 120q-10 148 -160 148q-112 0 -270 -92l-107 198q220 133 434 133q198 0 301 -114t103 -344v-582h-246l-23 104h-6q-146 -129 -297 -129q-135 0 -218 88t-83 220zM289 1176l166 262h239l166 -262h-186l-94 133h-9l-96 -133h-186zM383 305 q0 -96 117 -96q49 0 86.5 21t81.5 65v178q-153 -21 -219 -63.5t-66 -104.5zM723 1565h223l139 -242h-167z" />
<glyph unicode="&#x1ea8;" horiz-adv-x="1173" d="M-12 0l418 1335h362l418 -1335h-320l-82 317h-407l-82 -317h-307zM256 1438l195 233h260l192 -233h-213l-106 112h-9l-106 -112h-213zM438 553h285l-31 123q-16 59 -34.5 132t-40 162t-33.5 136h-9q-83 -354 -104 -430zM770 1755l29 123q299 -8 299 -164 q0 -160 -238 -178l-22 96q65 14 65 56q0 30 -29 45.5t-104 21.5z" />
<glyph unicode="&#x1ea9;" horiz-adv-x="1093" d="M96 283q0 161 136.5 250t435.5 120q-10 148 -160 148q-112 0 -270 -92l-107 198q220 133 434 133q198 0 301 -114t103 -344v-582h-246l-23 104h-6q-146 -129 -297 -129q-135 0 -218 88t-83 220zM289 1176l166 262h239l166 -262h-186l-94 133h-9l-96 -133h-186zM383 305 q0 -96 117 -96q49 0 86.5 21t81.5 65v178q-153 -21 -219 -63.5t-66 -104.5zM766 1513l27 127q162 -4 232.5 -45.5t70.5 -115.5q0 -49 -18.5 -84.5t-53.5 -56.5t-74.5 -33t-93.5 -19l-18 103q61 13 61 57q0 31 -29.5 47t-103.5 20z" />
<glyph unicode="&#x1eaa;" horiz-adv-x="1173" d="M-12 0l418 1335h362l418 -1335h-320l-82 317h-407l-82 -317h-307zM256 1438l195 233h260l192 -233h-213l-106 112h-9l-106 -112h-213zM274 1745q11 114 64 173.5t125 59.5q42 0 83.5 -20t75 -40t56.5 -20q59 0 74 80h133q-11 -114 -64 -173.5t-125 -59.5 q-42 0 -83.5 19.5t-75 39t-56.5 19.5q-56 0 -73 -78h-134zM438 553h285l-31 123q-16 59 -34.5 132t-40 162t-33.5 136h-9q-83 -354 -104 -430z" />
<glyph unicode="&#x1eab;" horiz-adv-x="1093" d="M96 283q0 161 136.5 250t435.5 120q-10 148 -160 148q-112 0 -270 -92l-107 198q220 133 434 133q198 0 301 -114t103 -344v-582h-246l-23 104h-6q-146 -129 -297 -129q-135 0 -218 88t-83 220zM272 1174l166 227h273l166 -227h-197l-100 120h-9l-102 -120h-197z M276 1475q11 116 62.5 174.5t124.5 58.5q47 0 87 -19.5t70 -39t52 -19.5q54 0 71 78h131q-13 -115 -64 -174t-122 -59q-47 0 -87.5 19.5t-70.5 38.5t-51 19q-56 0 -73 -77h-130zM383 305q0 -96 117 -96q49 0 86.5 21t81.5 65v178q-153 -21 -219 -63.5t-66 -104.5z" />
<glyph unicode="&#x1eac;" horiz-adv-x="1173" d="M-12 0l418 1335h362l418 -1335h-320l-82 317h-407l-82 -317h-307zM236 1438l196 245h295l197 -245h-232l-108 125h-9l-108 -125h-231zM414 -305q0 69 46.5 113.5t119.5 44.5t120.5 -44.5t47.5 -113.5t-47.5 -113.5t-120.5 -44.5t-119.5 44.5t-46.5 113.5zM438 553h285 l-31 123q-16 59 -34.5 132t-40 162t-33.5 136h-9q-83 -354 -104 -430z" />
<glyph unicode="&#x1ead;" horiz-adv-x="1093" d="M96 283q0 161 136.5 250t435.5 120q-10 148 -160 148q-112 0 -270 -92l-107 198q220 133 434 133q198 0 301 -114t103 -344v-582h-246l-23 104h-6q-146 -129 -297 -129q-135 0 -218 88t-83 220zM258 1176l197 307h239l197 -307h-203l-108 161h-9l-110 -161h-203z M373 -305q0 69 47.5 113.5t120.5 44.5q72 0 119 -44.5t47 -113.5t-47 -113.5t-119 -44.5q-73 0 -120.5 44.5t-47.5 113.5zM383 305q0 -96 117 -96q49 0 86.5 21t81.5 65v178q-153 -21 -219 -63.5t-66 -104.5z" />
<glyph unicode="&#x1eae;" horiz-adv-x="1173" d="M-12 0l418 1335h362l418 -1335h-320l-82 317h-407l-82 -317h-307zM301 1683h137q13 -54 45.5 -82t96.5 -28t96 28t45 82h137q-11 -115 -80 -180t-198 -65q-128 0 -198 65.5t-81 179.5zM438 553h285l-31 123q-16 59 -34.5 132t-40 162t-33.5 136h-9q-83 -354 -104 -430z M487 1655l131 243h228l-205 -243h-154z" />
<glyph unicode="&#x1eaf;" horiz-adv-x="1093" d="M96 283q0 161 136.5 250t435.5 120q-10 148 -160 148q-112 0 -270 -92l-107 198q220 133 434 133q198 0 301 -114t103 -344v-582h-246l-23 104h-6q-146 -129 -297 -129q-135 0 -218 88t-83 220zM291 1460h133q10 -62 47 -99.5t104 -37.5q65 0 102.5 38t47.5 99h135 q-5 -120 -78 -202t-207 -82q-136 0 -208.5 82t-75.5 202zM383 305q0 -96 117 -96q49 0 86.5 21t81.5 65v178q-153 -21 -219 -63.5t-66 -104.5zM479 1417l119 242h217l-184 -242h-152z" />
<glyph unicode="&#x1eb0;" horiz-adv-x="1173" d="M-12 0l418 1335h362l418 -1335h-320l-82 317h-407l-82 -317h-307zM301 1683h137q13 -54 45.5 -82t96.5 -28t96 28t45 82h137q-11 -115 -80 -180t-198 -65q-128 0 -198 65.5t-81 179.5zM313 1898h228l131 -243h-152zM438 553h285l-31 123q-16 59 -34.5 132t-40 162 t-33.5 136h-9q-83 -354 -104 -430z" />
<glyph unicode="&#x1eb1;" horiz-adv-x="1093" d="M96 283q0 161 136.5 250t435.5 120q-10 148 -160 148q-112 0 -270 -92l-107 198q220 133 434 133q198 0 301 -114t103 -344v-582h-246l-23 104h-6q-146 -129 -297 -129q-135 0 -218 88t-83 220zM291 1460h133q10 -62 47 -99.5t104 -37.5q65 0 102.5 38t47.5 99h135 q-5 -120 -78 -202t-207 -82q-136 0 -208.5 82t-75.5 202zM336 1659h215l119 -242h-152zM383 305q0 -96 117 -96q49 0 86.5 21t81.5 65v178q-153 -21 -219 -63.5t-66 -104.5z" />
<glyph unicode="&#x1eb2;" horiz-adv-x="1173" d="M-12 0l418 1335h362l418 -1335h-320l-82 317h-407l-82 -317h-307zM301 1683h137q13 -54 45.5 -82t96.5 -28t96 28t45 82h137q-11 -115 -80 -180t-198 -65q-128 0 -198 65.5t-81 179.5zM422 1870l29 125q299 -11 299 -166q0 -160 -236 -178l-25 96q33 7 50.5 19t17.5 36 q0 30 -30 46t-105 22zM438 553h285l-31 123q-16 59 -34.5 132t-40 162t-33.5 136h-9q-83 -354 -104 -430z" />
<glyph unicode="&#x1eb3;" horiz-adv-x="1093" d="M96 283q0 161 136.5 250t435.5 120q-10 148 -160 148q-112 0 -270 -92l-107 198q220 133 434 133q198 0 301 -114t103 -344v-582h-246l-23 104h-6q-146 -129 -297 -129q-135 0 -218 88t-83 220zM291 1460h133q10 -62 47 -99.5t104 -37.5q65 0 102.5 38t47.5 99h135 q-5 -120 -78 -202t-207 -82q-136 0 -208.5 82t-75.5 202zM383 305q0 -96 117 -96q49 0 86.5 21t81.5 65v178q-153 -21 -219 -63.5t-66 -104.5zM412 1657l28 127q162 -6 232.5 -47t70.5 -117q0 -48 -18.5 -83t-53.5 -56t-74.5 -32.5t-92.5 -18.5l-21 102q32 7 48 19t16 38 q0 30 -29.5 46t-105.5 22z" />
<glyph unicode="&#x1eb4;" horiz-adv-x="1173" d="M-12 0l418 1335h362l418 -1335h-320l-82 317h-407l-82 -317h-307zM274 1745q11 114 64 173.5t125 59.5q42 0 83.5 -20t75 -40t56.5 -20q59 0 74 80h133q-11 -114 -64 -173.5t-125 -59.5q-42 0 -83.5 19.5t-75 39t-56.5 19.5q-56 0 -73 -78h-134zM301 1683h137 q13 -54 45.5 -82t96.5 -28t96 28t45 82h137q-11 -115 -80 -180t-198 -65q-128 0 -198 65.5t-81 179.5zM438 553h285l-31 123q-16 59 -34.5 132t-40 162t-33.5 136h-9q-83 -354 -104 -430z" />
<glyph unicode="&#x1eb5;" horiz-adv-x="1093" d="M96 283q0 161 136.5 250t435.5 120q-10 148 -160 148q-112 0 -270 -92l-107 198q220 133 434 133q198 0 301 -114t103 -344v-582h-246l-23 104h-6q-146 -129 -297 -129q-135 0 -218 88t-83 220zM276 1475q11 116 62.5 174.5t124.5 58.5q47 0 87 -19.5t70 -39t52 -19.5 q54 0 71 78h131q-13 -115 -64 -174t-122 -59q-47 0 -87.5 19.5t-70.5 38.5t-51 19q-56 0 -73 -77h-130zM291 1419h141q23 -102 143 -102q119 0 142 102h141q-3 -104 -75.5 -173.5t-207.5 -69.5q-137 0 -208 69t-76 174zM383 305q0 -96 117 -96q49 0 86.5 21t81.5 65v178 q-153 -21 -219 -63.5t-66 -104.5z" />
<glyph unicode="&#x1eb6;" horiz-adv-x="1173" d="M-12 0l418 1335h362l418 -1335h-320l-82 317h-407l-82 -317h-307zM299 1683h166q21 -94 115 -94q93 0 114 94h166q-13 -114 -82.5 -179.5t-197.5 -65.5q-129 0 -198.5 65.5t-82.5 179.5zM414 -305q0 69 46.5 113.5t119.5 44.5t120.5 -44.5t47.5 -113.5t-47.5 -113.5 t-120.5 -44.5t-119.5 44.5t-46.5 113.5zM438 553h285l-31 123q-16 59 -34.5 132t-40 162t-33.5 136h-9q-83 -354 -104 -430z" />
<glyph unicode="&#x1eb7;" horiz-adv-x="1093" d="M96 283q0 161 136.5 250t435.5 120q-10 148 -160 148q-112 0 -270 -92l-107 198q220 133 434 133q198 0 301 -114t103 -344v-582h-246l-23 104h-6q-146 -129 -297 -129q-135 0 -218 88t-83 220zM291 1460h168q6 -54 35 -86.5t81 -32.5q51 0 80 32.5t37 86.5h168 q-5 -120 -78 -202t-207 -82q-136 0 -208.5 82t-75.5 202zM373 -305q0 69 47.5 113.5t120.5 44.5q72 0 119 -44.5t47 -113.5t-47 -113.5t-119 -44.5q-73 0 -120.5 44.5t-47.5 113.5zM383 305q0 -96 117 -96q49 0 86.5 21t81.5 65v178q-153 -21 -219 -63.5t-66 -104.5z" />
<glyph unicode="&#x1eb8;" horiz-adv-x="1122" d="M158 0v1335h835v-254h-534v-268h454v-252h-454v-307h555v-254h-856zM436 -305q0 69 47.5 113.5t120.5 44.5q72 0 119 -44.5t47 -113.5t-47 -113.5t-119 -44.5q-73 0 -120.5 44.5t-47.5 113.5z" />
<glyph unicode="&#x1eb9;" horiz-adv-x="1060" d="M74 508q0 120 40.5 222t107.5 168.5t153 104t178 37.5q209 0 320.5 -135.5t111.5 -351.5q0 -77 -12 -127h-608q20 -112 89.5 -166.5t174.5 -54.5q109 0 219 67l100 -182q-78 -54 -173.5 -84.5t-186.5 -30.5q-224 0 -369 143.5t-145 389.5zM362 612h367q0 93 -41.5 146 t-128.5 53q-74 0 -128.5 -51t-68.5 -148zM385 -305q0 69 47 113.5t119 44.5q73 0 120.5 -44.5t47.5 -113.5t-47.5 -113.5t-120.5 -44.5q-72 0 -119 44.5t-47 113.5z" />
<glyph unicode="&#x1eba;" horiz-adv-x="1122" d="M158 0v1335h835v-254h-534v-268h454v-252h-454v-307h555v-254h-856zM424 1665l35 150q344 -8 344 -187q0 -99 -78.5 -151t-206.5 -62l-22 119q44 9 68 22.5t24 38.5q0 59 -164 70z" />
<glyph unicode="&#x1ebb;" horiz-adv-x="1060" d="M74 508q0 120 40.5 222t107.5 168.5t153 104t178 37.5q209 0 320.5 -135.5t111.5 -351.5q0 -77 -12 -127h-608q20 -112 89.5 -166.5t174.5 -54.5q109 0 219 67l100 -182q-78 -54 -173.5 -84.5t-186.5 -30.5q-224 0 -369 143.5t-145 389.5zM362 612h367q0 93 -41.5 146 t-128.5 53q-74 0 -128.5 -51t-68.5 -148zM387 1389l33 151q184 -6 265 -53.5t81 -134.5q0 -98 -79.5 -150.5t-205.5 -60.5l-24 119q92 14 92 61q0 60 -162 68z" />
<glyph unicode="&#x1ebc;" horiz-adv-x="1122" d="M158 0v1335h835v-254h-534v-268h454v-252h-454v-307h555v-254h-856zM242 1440q17 135 76.5 206.5t142.5 71.5q48 0 96.5 -23t87 -46t62.5 -23q60 0 79 92h154q-17 -135 -76.5 -206.5t-144.5 -71.5q-47 0 -95 23t-86.5 46t-62.5 23q-61 0 -80 -92h-153z" />
<glyph unicode="&#x1ebd;" horiz-adv-x="1060" d="M74 508q0 120 40.5 222t107.5 168.5t153 104t178 37.5q209 0 320.5 -135.5t111.5 -351.5q0 -77 -12 -127h-608q20 -112 89.5 -166.5t174.5 -54.5q109 0 219 67l100 -182q-78 -54 -173.5 -84.5t-186.5 -30.5q-224 0 -369 143.5t-145 389.5zM213 1178q15 136 72 206t141 70 q47 0 95 -22.5t86 -45t61 -22.5q26 0 42.5 20.5t28.5 69.5h154q-17 -135 -73 -205.5t-140 -70.5q-47 0 -95 23t-86 46t-61 23q-27 0 -44 -21t-27 -71h-154zM362 612h367q0 93 -41.5 146t-128.5 53q-74 0 -128.5 -51t-68.5 -148z" />
<glyph unicode="&#x1ebe;" horiz-adv-x="1122" d="M158 0v1335h835v-254h-534v-268h454v-252h-454v-307h555v-254h-856zM266 1438l195 233h260l194 -233h-213l-108 112h-8l-107 -112h-213zM821 1577l142 246h233l-203 -246h-172z" />
<glyph unicode="&#x1ebf;" horiz-adv-x="1060" d="M74 508q0 120 40.5 222t107.5 168.5t153 104t178 37.5q209 0 320.5 -135.5t111.5 -351.5q0 -77 -12 -127h-608q20 -112 89.5 -166.5t174.5 -54.5q109 0 219 67l100 -182q-78 -54 -173.5 -84.5t-186.5 -30.5q-224 0 -369 143.5t-145 389.5zM268 1176l164 262h240l166 -262 h-187l-94 133h-8l-96 -133h-185zM362 612h367q0 93 -41.5 146t-128.5 53q-74 0 -128.5 -51t-68.5 -148zM772 1323l139 242h224l-195 -242h-168z" />
<glyph unicode="&#x1ec0;" horiz-adv-x="1122" d="M158 0v1335h835v-254h-534v-268h454v-252h-454v-307h555v-254h-856zM266 1438l195 233h260l194 -233h-213l-108 112h-8l-107 -112h-213zM705 1823h233l139 -246h-170z" />
<glyph unicode="&#x1ec1;" horiz-adv-x="1060" d="M74 508q0 120 40.5 222t107.5 168.5t153 104t178 37.5q209 0 320.5 -135.5t111.5 -351.5q0 -77 -12 -127h-608q20 -112 89.5 -166.5t174.5 -54.5q109 0 219 67l100 -182q-78 -54 -173.5 -84.5t-186.5 -30.5q-224 0 -369 143.5t-145 389.5zM268 1176l164 262h240l166 -262 h-187l-94 133h-8l-96 -133h-185zM362 612h367q0 93 -41.5 146t-128.5 53q-74 0 -128.5 -51t-68.5 -148zM700 1565h224l139 -242h-168z" />
<glyph unicode="&#x1ec2;" horiz-adv-x="1122" d="M158 0v1335h835v-254h-534v-268h454v-252h-454v-307h555v-254h-856zM266 1438l195 233h260l194 -233h-213l-108 112h-8l-107 -112h-213zM780 1755l29 123q299 -8 299 -164q0 -160 -236 -178l-24 96q33 7 50 19.5t17 36.5q0 30 -30 45.5t-105 21.5z" />
<glyph unicode="&#x1ec3;" horiz-adv-x="1060" d="M74 508q0 120 40.5 222t107.5 168.5t153 104t178 37.5q209 0 320.5 -135.5t111.5 -351.5q0 -77 -12 -127h-608q20 -112 89.5 -166.5t174.5 -54.5q109 0 219 67l100 -182q-78 -54 -173.5 -84.5t-186.5 -30.5q-224 0 -369 143.5t-145 389.5zM268 1176l164 262h240l166 -262 h-187l-94 133h-8l-96 -133h-185zM362 612h367q0 93 -41.5 146t-128.5 53q-74 0 -128.5 -51t-68.5 -148zM743 1513l27 127q162 -4 232.5 -45.5t70.5 -115.5q0 -39 -12.5 -70t-33.5 -51t-53 -35t-64.5 -23t-75.5 -14l-19 103q62 13 62 57q0 30 -30 46.5t-104 20.5z" />
<glyph unicode="&#x1ec4;" horiz-adv-x="1122" d="M158 0v1335h835v-254h-534v-268h454v-252h-454v-307h555v-254h-856zM266 1438l195 233h260l194 -233h-213l-108 112h-8l-107 -112h-213zM285 1745q13 115 65 174t125 59q42 0 83.5 -20t74.5 -40t55 -20q59 0 76 80h133q-13 -115 -65 -174t-125 -59q-42 0 -83.5 19.5 t-74.5 39t-55 19.5q-59 0 -76 -78h-133z" />
<glyph unicode="&#x1ec5;" horiz-adv-x="1060" d="M74 508q0 120 40.5 222t107.5 168.5t153 104t178 37.5q209 0 320.5 -135.5t111.5 -351.5q0 -77 -12 -127h-608q20 -112 89.5 -166.5t174.5 -54.5q109 0 219 67l100 -182q-78 -54 -173.5 -84.5t-186.5 -30.5q-224 0 -369 143.5t-145 389.5zM252 1174l164 227h274l164 -227 h-195l-102 120h-8l-103 -120h-194zM254 1475q11 116 62 174.5t124 58.5q47 0 87 -19.5t70 -39t52 -19.5q58 0 72 78h131q-13 -115 -64 -174t-122 -59q-47 0 -87 19.5t-70 38.5t-52 19q-57 0 -74 -77h-129zM362 612h367q0 93 -41.5 146t-128.5 53q-74 0 -128.5 -51 t-68.5 -148z" />
<glyph unicode="&#x1ec6;" horiz-adv-x="1122" d="M158 0v1335h835v-254h-534v-268h454v-252h-454v-307h555v-254h-856zM248 1438l196 245h293l197 -245h-229l-111 125h-8l-109 -125h-229zM436 -305q0 69 47.5 113.5t120.5 44.5q72 0 119 -44.5t47 -113.5t-47 -113.5t-119 -44.5q-73 0 -120.5 44.5t-47.5 113.5z" />
<glyph unicode="&#x1ec7;" horiz-adv-x="1060" d="M74 508q0 120 40.5 222t107.5 168.5t153 104t178 37.5q209 0 320.5 -135.5t111.5 -351.5q0 -77 -12 -127h-608q20 -112 89.5 -166.5t174.5 -54.5q109 0 219 67l100 -182q-78 -54 -173.5 -84.5t-186.5 -30.5q-224 0 -369 143.5t-145 389.5zM238 1176l194 307h240l196 -307 h-202l-109 161h-8l-109 -161h-202zM362 612h367q0 93 -41.5 146t-128.5 53q-74 0 -128.5 -51t-68.5 -148zM385 -305q0 69 47 113.5t119 44.5q73 0 120.5 -44.5t47.5 -113.5t-47.5 -113.5t-120.5 -44.5q-72 0 -119 44.5t-47 113.5z" />
<glyph unicode="&#x1ec8;" horiz-adv-x="616" d="M141 1665l35 150q346 -8 346 -187q0 -99 -79 -151t-207 -62l-23 119q44 9 68 22.5t24 38.5q0 59 -164 70zM158 0v1335h301v-1335h-301z" />
<glyph unicode="&#x1ec9;" horiz-adv-x="565" d="M117 1389l35 151q183 -6 263.5 -53.5t80.5 -134.5q0 -98 -79.5 -150.5t-205.5 -60.5l-23 119q91 14 91 61q0 60 -162 68zM133 0v1016h301v-1016h-301z" />
<glyph unicode="&#x1eca;" horiz-adv-x="616" d="M141 -305q0 69 47.5 113.5t120.5 44.5q72 0 119 -44.5t47 -113.5t-47 -113.5t-119 -44.5q-73 0 -120.5 44.5t-47.5 113.5zM158 0v1335h301v-1335h-301z" />
<glyph unicode="&#x1ecb;" horiz-adv-x="565" d="M109 1323q0 69 49.5 112.5t124.5 43.5q77 0 125.5 -43.5t48.5 -112.5t-49 -113.5t-125 -44.5q-75 0 -124.5 44.5t-49.5 113.5zM117 -305q0 69 47 113.5t119 44.5q73 0 120.5 -44.5t47.5 -113.5t-47.5 -113.5t-120.5 -44.5q-72 0 -119 44.5t-47 113.5zM133 0v1016h301 v-1016h-301z" />
<glyph unicode="&#x1ecc;" horiz-adv-x="1400" d="M94 674q0 322 165.5 504t440.5 182q274 0 440.5 -182.5t166.5 -503.5q0 -323 -167 -511t-440 -188t-439.5 188t-166.5 511zM403 674q0 -201 80.5 -319.5t216.5 -118.5t216.5 118.5t80.5 319.5q0 199 -80 312.5t-217 113.5t-217 -113.5t-80 -312.5zM535 -305 q0 69 46 113.5t119 44.5t120.5 -44.5t47.5 -113.5t-47.5 -113.5t-120.5 -44.5t-119 44.5t-46 113.5z" />
<glyph unicode="&#x1ecd;" horiz-adv-x="1136" d="M74 508q0 123 41 225t110 168.5t158 102.5t186 36t185.5 -36t157.5 -102.5t110 -168.5t41 -225t-41 -225.5t-110 -168.5t-157.5 -102.5t-185.5 -36.5t-186 36.5t-158 102.5t-110 168.5t-41 225.5zM383 508q0 -135 47 -212t139 -77q91 0 139 77t48 212t-48 212t-139 77 q-92 0 -139 -77t-47 -212zM401 -305q0 69 47.5 113.5t120.5 44.5q72 0 119 -44.5t47 -113.5t-47 -113.5t-119 -44.5q-73 0 -120.5 44.5t-47.5 113.5z" />
<glyph unicode="&#x1ece;" horiz-adv-x="1400" d="M94 674q0 322 165.5 504t440.5 182q274 0 440.5 -182.5t166.5 -503.5q0 -323 -167 -511t-440 -188t-439.5 188t-166.5 511zM403 674q0 -201 80.5 -319.5t216.5 -118.5t216.5 118.5t80.5 319.5q0 199 -80 312.5t-217 113.5t-217 -113.5t-80 -312.5zM535 1665l34 150 q344 -8 344 -187q0 -99 -78.5 -151t-205.5 -62l-23 119q43 9 66.5 22.5t23.5 38.5q0 30 -37.5 47t-123.5 23z" />
<glyph unicode="&#x1ecf;" horiz-adv-x="1136" d="M74 508q0 123 41 225t110 168.5t158 102.5t186 36t185.5 -36t157.5 -102.5t110 -168.5t41 -225t-41 -225.5t-110 -168.5t-157.5 -102.5t-185.5 -36.5t-186 36.5t-158 102.5t-110 168.5t-41 225.5zM383 508q0 -135 47 -212t139 -77q91 0 139 77t48 212t-48 212t-139 77 q-92 0 -139 -77t-47 -212zM401 1389l35 151q183 -6 263.5 -53.5t80.5 -134.5q0 -67 -39.5 -114t-101 -69.5t-143.5 -27.5l-23 119q92 14 92 61q0 60 -164 68z" />
<glyph unicode="&#x1ed0;" horiz-adv-x="1400" d="M94 674q0 322 165.5 504t440.5 182q274 0 440.5 -182.5t166.5 -503.5q0 -323 -167 -511t-440 -188t-439.5 188t-166.5 511zM377 1438l194 233h260l195 -233h-215l-106 112h-9l-106 -112h-213zM403 674q0 -201 80.5 -319.5t216.5 -118.5t216.5 118.5t80.5 319.5 q0 199 -80 312.5t-217 113.5t-217 -113.5t-80 -312.5zM932 1577l141 246h232l-201 -246h-172z" />
<glyph unicode="&#x1ed1;" horiz-adv-x="1136" d="M74 508q0 123 41 225t110 168.5t158 102.5t186 36t185.5 -36t157.5 -102.5t110 -168.5t41 -225t-41 -225.5t-110 -168.5t-157.5 -102.5t-185.5 -36.5t-186 36.5t-158 102.5t-110 168.5t-41 225.5zM283 1176l166 262h239l166 -262h-186l-95 133h-8l-96 -133h-186zM383 508 q0 -135 47 -212t139 -77q91 0 139 77t48 212t-48 212t-139 77q-92 0 -139 -77t-47 -212zM786 1323l142 242h221l-193 -242h-170z" />
<glyph unicode="&#x1ed2;" horiz-adv-x="1400" d="M94 674q0 322 165.5 504t440.5 182q274 0 440.5 -182.5t166.5 -503.5q0 -323 -167 -511t-440 -188t-439.5 188t-166.5 511zM377 1438l194 233h260l195 -233h-215l-106 112h-9l-106 -112h-213zM403 674q0 -201 80.5 -319.5t216.5 -118.5t216.5 118.5t80.5 319.5 q0 199 -80 312.5t-217 113.5t-217 -113.5t-80 -312.5zM815 1823h232l141 -246h-170z" />
<glyph unicode="&#x1ed3;" horiz-adv-x="1136" d="M74 508q0 123 41 225t110 168.5t158 102.5t186 36t185.5 -36t157.5 -102.5t110 -168.5t41 -225t-41 -225.5t-110 -168.5t-157.5 -102.5t-185.5 -36.5t-186 36.5t-158 102.5t-110 168.5t-41 225.5zM283 1176l166 262h239l166 -262h-186l-95 133h-8l-96 -133h-186zM383 508 q0 -135 47 -212t139 -77q91 0 139 77t48 212t-48 212t-139 77q-92 0 -139 -77t-47 -212zM717 1565h223l139 -242h-168z" />
<glyph unicode="&#x1ed4;" horiz-adv-x="1400" d="M94 674q0 322 165.5 504t440.5 182q274 0 440.5 -182.5t166.5 -503.5q0 -323 -167 -511t-440 -188t-439.5 188t-166.5 511zM377 1438l194 233h260l195 -233h-215l-106 112h-9l-106 -112h-213zM403 674q0 -201 80.5 -319.5t216.5 -118.5t216.5 118.5t80.5 319.5 q0 199 -80 312.5t-217 113.5t-217 -113.5t-80 -312.5zM891 1755l29 123q299 -8 299 -164q0 -160 -236 -178l-25 96q66 14 66 56q0 30 -29 45.5t-104 21.5z" />
<glyph unicode="&#x1ed5;" horiz-adv-x="1136" d="M74 508q0 123 41 225t110 168.5t158 102.5t186 36t185.5 -36t157.5 -102.5t110 -168.5t41 -225t-41 -225.5t-110 -168.5t-157.5 -102.5t-185.5 -36.5t-186 36.5t-158 102.5t-110 168.5t-41 225.5zM283 1176l166 262h239l166 -262h-186l-95 133h-8l-96 -133h-186zM383 508 q0 -135 47 -212t139 -77q91 0 139 77t48 212t-48 212t-139 77q-92 0 -139 -77t-47 -212zM760 1513l26 127q162 -4 233 -45.5t71 -115.5q0 -49 -18.5 -84.5t-53.5 -56.5t-74.5 -33t-93.5 -19l-21 103q64 13 64 57q0 31 -29.5 47t-103.5 20z" />
<glyph unicode="&#x1ed6;" horiz-adv-x="1400" d="M94 674q0 322 165.5 504t440.5 182q274 0 440.5 -182.5t166.5 -503.5q0 -323 -167 -511t-440 -188t-439.5 188t-166.5 511zM377 1438l194 233h260l195 -233h-215l-106 112h-9l-106 -112h-213zM395 1745q11 114 64.5 173.5t126.5 59.5q42 0 83 -20t74 -40t56 -20 q58 0 73 80h134q-11 -114 -64 -173.5t-125 -59.5q-42 0 -83.5 19.5t-75 39t-56.5 19.5q-57 0 -74 -78h-133zM403 674q0 -201 80.5 -319.5t216.5 -118.5t216.5 118.5t80.5 319.5q0 199 -80 312.5t-217 113.5t-217 -113.5t-80 -312.5z" />
<glyph unicode="&#x1ed7;" horiz-adv-x="1136" d="M74 508q0 123 41 225t110 168.5t158 102.5t186 36t185.5 -36t157.5 -102.5t110 -168.5t41 -225t-41 -225.5t-110 -168.5t-157.5 -102.5t-185.5 -36.5t-186 36.5t-158 102.5t-110 168.5t-41 225.5zM266 1174l166 227h273l165 -227h-196l-101 120h-8l-102 -120h-197z M270 1475q11 116 62.5 174.5t124.5 58.5q47 0 87 -19.5t70 -39t52 -19.5q54 0 71 78h131q-13 -115 -64 -174t-124 -59q-46 0 -86 19.5t-70.5 38.5t-52.5 19q-55 0 -72 -77h-129zM383 508q0 -135 47 -212t139 -77q91 0 139 77t48 212t-48 212t-139 77q-92 0 -139 -77 t-47 -212z" />
<glyph unicode="&#x1ed8;" horiz-adv-x="1400" d="M94 674q0 322 165.5 504t440.5 182q274 0 440.5 -182.5t166.5 -503.5q0 -323 -167 -511t-440 -188t-439.5 188t-166.5 511zM356 1438l197 245h295l196 -245h-231l-108 125h-9l-108 -125h-232zM403 674q0 -201 80.5 -319.5t216.5 -118.5t216.5 118.5t80.5 319.5 q0 199 -80 312.5t-217 113.5t-217 -113.5t-80 -312.5zM535 -305q0 69 46 113.5t119 44.5t120.5 -44.5t47.5 -113.5t-47.5 -113.5t-120.5 -44.5t-119 44.5t-46 113.5z" />
<glyph unicode="&#x1ed9;" horiz-adv-x="1136" d="M74 508q0 123 41 225t110 168.5t158 102.5t186 36t185.5 -36t157.5 -102.5t110 -168.5t41 -225t-41 -225.5t-110 -168.5t-157.5 -102.5t-185.5 -36.5t-186 36.5t-158 102.5t-110 168.5t-41 225.5zM252 1176l197 307h239l197 -307h-203l-109 161h-8l-110 -161h-203z M383 508q0 -135 47 -212t139 -77q91 0 139 77t48 212t-48 212t-139 77q-92 0 -139 -77t-47 -212zM401 -305q0 69 47.5 113.5t120.5 44.5q72 0 119 -44.5t47 -113.5t-47 -113.5t-119 -44.5q-73 0 -120.5 44.5t-47.5 113.5z" />
<glyph unicode="&#x1eda;" horiz-adv-x="1400" d="M96 674q0 322 165.5 504t440.5 182q157 0 285 -64q63 14 93 42t30 83q0 43 -33 95l205 90q61 -68 61 -164q0 -185 -217 -246q183 -189 183 -522q0 -323 -167 -511t-440 -188t-439.5 188t-166.5 511zM406 674q0 -201 80 -319.5t216 -118.5t216.5 118.5t80.5 319.5 q0 199 -80 312.5t-217 113.5t-216.5 -113.5t-79.5 -312.5zM547 1438l166 245h319l-244 -245h-241z" />
<glyph unicode="&#x1edb;" horiz-adv-x="1136" d="M74 508q0 123 41 225t110 168.5t158 102.5t186 36q100 0 195 -39q54 11 83.5 39t29.5 82q0 44 -31 95l205 90q59 -70 59 -164t-54 -155t-145 -87q152 -149 152 -393q0 -123 -41 -225.5t-110 -168.5t-157.5 -102.5t-185.5 -36.5t-186 36.5t-158 102.5t-110 168.5 t-41 225.5zM383 508q0 -135 47 -212t139 -77q91 0 139 77t48 212t-48 212t-139 77q-92 0 -139 -77t-47 -212zM401 1176l183 307h290l-253 -307h-220z" />
<glyph unicode="&#x1edc;" horiz-adv-x="1400" d="M96 674q0 322 165.5 504t440.5 182q157 0 285 -64q63 14 93 42t30 83q0 43 -33 95l205 90q61 -68 61 -164q0 -185 -217 -246q183 -189 183 -522q0 -323 -167 -511t-440 -188t-439.5 188t-166.5 511zM369 1683h319l166 -245h-240zM406 674q0 -201 80 -319.5t216 -118.5 t216.5 118.5t80.5 319.5q0 199 -80 312.5t-217 113.5t-216.5 -113.5t-79.5 -312.5z" />
<glyph unicode="&#x1edd;" horiz-adv-x="1136" d="M74 508q0 123 41 225t110 168.5t158 102.5t186 36q100 0 195 -39q54 11 83.5 39t29.5 82q0 44 -31 95l205 90q59 -70 59 -164t-54 -155t-145 -87q152 -149 152 -393q0 -123 -41 -225.5t-110 -168.5t-157.5 -102.5t-185.5 -36.5t-186 36.5t-158 102.5t-110 168.5 t-41 225.5zM262 1483h291l182 -307h-219zM383 508q0 -135 47 -212t139 -77q91 0 139 77t48 212t-48 212t-139 77q-92 0 -139 -77t-47 -212z" />
<glyph unicode="&#x1ede;" horiz-adv-x="1400" d="M96 674q0 322 165.5 504t440.5 182q157 0 285 -64q63 14 93 42t30 83q0 43 -33 95l205 90q61 -68 61 -164q0 -185 -217 -246q183 -189 183 -522q0 -323 -167 -511t-440 -188t-439.5 188t-166.5 511zM406 674q0 -201 80 -319.5t216 -118.5t216.5 118.5t80.5 319.5 q0 199 -80 312.5t-217 113.5t-216.5 -113.5t-79.5 -312.5zM535 1665l34 150q344 -8 344 -187q0 -99 -78.5 -151t-205.5 -62l-23 119q43 9 66.5 22.5t23.5 38.5q0 30 -37.5 47t-123.5 23z" />
<glyph unicode="&#x1edf;" horiz-adv-x="1136" d="M74 508q0 123 41 225t110 168.5t158 102.5t186 36q100 0 195 -39q54 11 83.5 39t29.5 82q0 44 -31 95l205 90q59 -70 59 -164t-54 -155t-145 -87q152 -149 152 -393q0 -123 -41 -225.5t-110 -168.5t-157.5 -102.5t-185.5 -36.5t-186 36.5t-158 102.5t-110 168.5 t-41 225.5zM383 508q0 -135 47 -212t139 -77q91 0 139 77t48 212t-48 212t-139 77q-92 0 -139 -77t-47 -212zM401 1389l35 151q183 -6 263.5 -53.5t80.5 -134.5q0 -67 -39.5 -114t-101 -69.5t-143.5 -27.5l-23 119q92 14 92 61q0 60 -164 68z" />
<glyph unicode="&#x1ee0;" horiz-adv-x="1400" d="M96 674q0 322 165.5 504t440.5 182q157 0 285 -64q63 14 93 42t30 83q0 43 -33 95l205 90q61 -68 61 -164q0 -185 -217 -246q183 -189 183 -522q0 -323 -167 -511t-440 -188t-439.5 188t-166.5 511zM352 1440q14 134 75 206t144 72q48 0 96 -23t86.5 -46t63.5 -23 q58 0 80 92h152q-14 -134 -75.5 -206t-144.5 -72q-48 0 -95.5 23t-86 46t-63.5 23q-59 0 -78 -92h-154zM406 674q0 -201 80 -319.5t216 -118.5t216.5 118.5t80.5 319.5q0 199 -80 312.5t-217 113.5t-216.5 -113.5t-79.5 -312.5z" />
<glyph unicode="&#x1ee1;" horiz-adv-x="1136" d="M74 508q0 123 41 225t110 168.5t158 102.5t186 36q100 0 195 -39q54 11 83.5 39t29.5 82q0 44 -31 95l205 90q59 -70 59 -164t-54 -155t-145 -87q152 -149 152 -393q0 -123 -41 -225.5t-110 -168.5t-157.5 -102.5t-185.5 -36.5t-186 36.5t-158 102.5t-110 168.5 t-41 225.5zM229 1178q15 135 71.5 205.5t139.5 70.5q47 0 95 -22.5t86.5 -45t62.5 -22.5q27 0 43.5 20.5t26.5 69.5h153q-15 -135 -71 -205.5t-140 -70.5q-47 0 -94.5 23t-85.5 46t-61 23q-28 0 -45 -21t-27 -71h-154zM383 508q0 -135 47 -212t139 -77q91 0 139 77t48 212 t-48 212t-139 77q-92 0 -139 -77t-47 -212z" />
<glyph unicode="&#x1ee2;" horiz-adv-x="1400" d="M96 674q0 322 165.5 504t440.5 182q157 0 285 -64q63 14 93 42t30 83q0 43 -33 95l205 90q61 -68 61 -164q0 -185 -217 -246q183 -189 183 -522q0 -323 -167 -511t-440 -188t-439.5 188t-166.5 511zM406 674q0 -201 80 -319.5t216 -118.5t216.5 118.5t80.5 319.5 q0 199 -80 312.5t-217 113.5t-216.5 -113.5t-79.5 -312.5zM535 -305q0 69 46 113.5t119 44.5t120.5 -44.5t47.5 -113.5t-47.5 -113.5t-120.5 -44.5t-119 44.5t-46 113.5z" />
<glyph unicode="&#x1ee3;" horiz-adv-x="1136" d="M74 508q0 123 41 225t110 168.5t158 102.5t186 36q100 0 195 -39q54 11 83.5 39t29.5 82q0 44 -31 95l205 90q59 -70 59 -164t-54 -155t-145 -87q152 -149 152 -393q0 -123 -41 -225.5t-110 -168.5t-157.5 -102.5t-185.5 -36.5t-186 36.5t-158 102.5t-110 168.5 t-41 225.5zM383 508q0 -135 47 -212t139 -77q91 0 139 77t48 212t-48 212t-139 77q-92 0 -139 -77t-47 -212zM401 -305q0 69 47.5 113.5t120.5 44.5q72 0 119 -44.5t47 -113.5t-47 -113.5t-119 -44.5q-73 0 -120.5 44.5t-47.5 113.5z" />
<glyph unicode="&#x1ee4;" horiz-adv-x="1361" d="M150 618v717h303v-747q0 -190 57 -271t174 -81q118 0 177 81.5t59 270.5v747h290v-717q0 -331 -132 -487t-394 -156q-265 0 -399.5 156t-134.5 487zM514 -305q0 69 47 113.5t119 44.5q73 0 120.5 -44.5t47.5 -113.5t-47.5 -113.5t-120.5 -44.5q-72 0 -119 44.5t-47 113.5 z" />
<glyph unicode="&#x1ee5;" horiz-adv-x="1163" d="M123 385v631h301v-592q0 -107 30 -150t97 -43q56 0 95 25.5t85 87.5v672h301v-1016h-246l-22 141h-6q-69 -82 -145 -124t-175 -42q-315 0 -315 410zM455 -305q0 69 46.5 113.5t119.5 44.5t120 -44.5t47 -113.5t-47 -113.5t-120 -44.5t-119.5 44.5t-46.5 113.5z" />
<glyph unicode="&#x1ee6;" horiz-adv-x="1361" d="M150 618v717h303v-747q0 -190 57 -271t174 -81q118 0 177 81.5t59 270.5v747h290v-717q0 -331 -132 -487t-394 -156q-265 0 -399.5 156t-134.5 487zM514 1665l35 150q344 -8 344 -187q0 -99 -79 -151t-206 -62l-22 119q44 9 67 22t23 39q0 59 -162 70z" />
<glyph unicode="&#x1ee7;" horiz-adv-x="1163" d="M123 385v631h301v-592q0 -107 30 -150t97 -43q56 0 95 25.5t85 87.5v672h301v-1016h-246l-22 141h-6q-69 -82 -145 -124t-175 -42q-315 0 -315 410zM418 1389l35 151q183 -6 263.5 -53.5t80.5 -134.5q0 -98 -79.5 -150.5t-205.5 -60.5l-23 119q91 15 91 61q0 60 -162 68z " />
<glyph unicode="&#x1ee8;" horiz-adv-x="1398" d="M150 618v717h303v-747q0 -190 57 -271t174 -81q118 0 177 81.5t59 270.5v747h143q48 1 82 9.5t61 38t27 79.5q0 42 -33 94l205 91q61 -73 61 -164q0 -109 -70 -172.5t-186 -85.5v-607q0 -331 -132 -487t-394 -156q-265 0 -399.5 156t-134.5 487zM526 1438l166 245h320 l-244 -245h-242z" />
<glyph unicode="&#x1ee9;" horiz-adv-x="1163" d="M123 385v631h301v-592q0 -107 30 -150t97 -43q56 0 95 25.5t85 87.5v672h94q34 2 59.5 7t52 18t40.5 38.5t14 63.5q0 45 -30 94l204 90q60 -72 60 -164q0 -93 -52.5 -152.5t-140.5 -86.5v-924h-246l-22 141h-6q-69 -82 -145 -124t-175 -42q-315 0 -315 410zM393 1176 l182 307h291l-254 -307h-219z" />
<glyph unicode="&#x1eea;" horiz-adv-x="1398" d="M150 618v717h303v-747q0 -190 57 -271t174 -81q118 0 177 81.5t59 270.5v747h143q48 1 82 9.5t61 38t27 79.5q0 42 -33 94l205 91q61 -73 61 -164q0 -109 -70 -172.5t-186 -85.5v-607q0 -331 -132 -487t-394 -156q-265 0 -399.5 156t-134.5 487zM348 1683h320l166 -245 h-240z" />
<glyph unicode="&#x1eeb;" horiz-adv-x="1163" d="M123 385v631h301v-592q0 -107 30 -150t97 -43q56 0 95 25.5t85 87.5v672h94q34 2 59.5 7t52 18t40.5 38.5t14 63.5q0 45 -30 94l204 90q60 -72 60 -164q0 -93 -52.5 -152.5t-140.5 -86.5v-924h-246l-22 141h-6q-69 -82 -145 -124t-175 -42q-315 0 -315 410zM256 1483h291 l180 -307h-219z" />
<glyph unicode="&#x1eec;" horiz-adv-x="1398" d="M150 618v717h303v-747q0 -190 57 -271t174 -81q118 0 177 81.5t59 270.5v747h143q48 1 82 9.5t61 38t27 79.5q0 42 -33 94l205 91q61 -73 61 -164q0 -109 -70 -172.5t-186 -85.5v-607q0 -331 -132 -487t-394 -156q-265 0 -399.5 156t-134.5 487zM514 1665l35 150 q344 -8 344 -187q0 -99 -79 -151t-206 -62l-22 119q43 9 66.5 22.5t23.5 38.5q0 59 -162 70z" />
<glyph unicode="&#x1eed;" horiz-adv-x="1163" d="M123 385v631h301v-592q0 -107 30 -150t97 -43q56 0 95 25.5t85 87.5v672h94q34 2 59.5 7t52 18t40.5 38.5t14 63.5q0 45 -30 94l204 90q60 -72 60 -164q0 -93 -52.5 -152.5t-140.5 -86.5v-924h-246l-22 141h-6q-69 -82 -145 -124t-175 -42q-315 0 -315 410zM395 1389 l33 151q184 -6 265 -53.5t81 -134.5q0 -98 -79.5 -150.5t-205.5 -60.5l-24 119q92 14 92 61q0 60 -162 68z" />
<glyph unicode="&#x1eee;" horiz-adv-x="1398" d="M150 618v717h303v-747q0 -190 57 -271t174 -81q118 0 177 81.5t59 270.5v747h143q48 1 82 9.5t61 38t27 79.5q0 42 -33 94l205 91q61 -73 61 -164q0 -109 -70 -172.5t-186 -85.5v-607q0 -331 -132 -487t-394 -156q-265 0 -399.5 156t-134.5 487zM332 1440q14 134 75 206 t144 72q48 0 96 -23t86.5 -46t63.5 -23q58 0 80 92h151q-14 -134 -75 -206t-144 -72q-48 0 -96 23t-86.5 46t-63.5 23q-59 0 -78 -92h-153z" />
<glyph unicode="&#x1eef;" horiz-adv-x="1163" d="M123 385v631h301v-592q0 -107 30 -150t97 -43q56 0 95 25.5t85 87.5v672h94q34 2 59.5 7t52 18t40.5 38.5t14 63.5q0 45 -30 94l204 90q60 -72 60 -164q0 -93 -52.5 -152.5t-140.5 -86.5v-924h-246l-22 141h-6q-69 -82 -145 -124t-175 -42q-315 0 -315 410zM221 1178 q15 136 72 206t141 70q47 0 95 -22.5t86 -45t61 -22.5q27 0 43.5 20.5t28.5 69.5h153q-17 -135 -73 -205.5t-140 -70.5q-47 0 -95 23t-86 46t-61 23q-27 0 -44 -21t-27 -71h-154z" />
<glyph unicode="&#x1ef0;" horiz-adv-x="1398" d="M150 618v717h303v-747q0 -190 57 -271t174 -81q118 0 177 81.5t59 270.5v747h143q48 1 82 9.5t61 38t27 79.5q0 42 -33 94l205 91q61 -73 61 -164q0 -109 -70 -172.5t-186 -85.5v-607q0 -331 -132 -487t-394 -156q-265 0 -399.5 156t-134.5 487zM514 -305 q0 69 46.5 113.5t119.5 44.5t120.5 -44.5t47.5 -113.5t-47.5 -113.5t-120.5 -44.5t-119.5 44.5t-46.5 113.5z" />
<glyph unicode="&#x1ef1;" horiz-adv-x="1163" d="M123 385v631h301v-592q0 -107 30 -150t97 -43q56 0 95 25.5t85 87.5v672h94q34 2 59.5 7t52 18t40.5 38.5t14 63.5q0 45 -30 94l204 90q60 -72 60 -164q0 -93 -52.5 -152.5t-140.5 -86.5v-924h-246l-22 141h-6q-69 -82 -145 -124t-175 -42q-315 0 -315 410zM432 -305 q0 69 46.5 113.5t119.5 44.5t119.5 -44.5t46.5 -113.5t-46.5 -113.5t-119.5 -44.5t-119.5 44.5t-46.5 113.5z" />
<glyph unicode="&#x1ef2;" horiz-adv-x="1075" d="M-16 1335h323l119 -307l109 -295h8q88 231 112 295l121 307h316l-404 -860v-475h-301v475zM205 1683h321l164 -245h-239z" />
<glyph unicode="&#x1ef3;" horiz-adv-x="1067" d="M25 1016h303l145 -436q14 -44 80 -289h8q60 253 70 289l123 436h288l-352 -1026q-38 -101 -76.5 -169.5t-91 -119.5t-120 -74.5t-156.5 -23.5q-76 0 -144 20l54 230q58 -13 67 -13q133 0 178 133l15 54zM242 1483h290l183 -307h-221z" />
<glyph unicode="&#x1ef4;" horiz-adv-x="1075" d="M-16 1335h323l119 -307l109 -295h8q88 231 112 295l121 307h316l-404 -860v-475h-301v475zM375 -305q0 69 47 113.5t119 44.5q73 0 120.5 -44.5t47.5 -113.5t-47.5 -113.5t-120.5 -44.5q-72 0 -119 44.5t-47 113.5z" />
<glyph unicode="&#x1ef5;" horiz-adv-x="1067" d="M25 1016h303l145 -436q14 -44 80 -289h8q60 253 70 289l123 436h288l-352 -1026q-38 -101 -76.5 -169.5t-91 -119.5t-120 -74.5t-156.5 -23.5q-76 0 -144 20l54 230q58 -13 67 -13q133 0 178 133l15 54zM748 -289q0 69 47 113.5t120 44.5t119.5 -44.5t46.5 -113.5 t-46.5 -113t-119.5 -44t-120 44t-47 113z" />
<glyph unicode="&#x1ef6;" horiz-adv-x="1075" d="M-16 1335h323l119 -307l109 -295h8q88 231 112 295l121 307h316l-404 -860v-475h-301v475zM371 1665l35 150q344 -8 344 -187q0 -99 -78.5 -151t-206.5 -62l-23 119q45 9 69 22.5t24 38.5q0 59 -164 70z" />
<glyph unicode="&#x1ef7;" horiz-adv-x="1067" d="M25 1016h303l145 -436q14 -44 80 -289h8q60 253 70 289l123 436h288l-352 -1026q-38 -101 -76.5 -169.5t-91 -119.5t-120 -74.5t-156.5 -23.5q-76 0 -144 20l54 230q58 -13 67 -13q133 0 178 133l15 54zM381 1389l33 151q184 -6 265 -53.5t81 -134.5q0 -98 -79.5 -150.5 t-205.5 -60.5l-24 119q92 14 92 61q0 60 -162 68z" />
<glyph unicode="&#x1ef8;" horiz-adv-x="1075" d="M-16 1335h323l119 -307l109 -295h8q88 231 112 295l121 307h316l-404 -860v-475h-301v475zM188 1440q17 135 77 206.5t145 71.5q47 0 94.5 -23t86 -46t62.5 -23q61 0 80 92h154q-17 -135 -76.5 -206.5t-144.5 -71.5q-47 0 -95 23t-86.5 46t-62.5 23q-61 0 -80 -92h-154z " />
<glyph unicode="&#x1ef9;" horiz-adv-x="1067" d="M25 1016h303l145 -436q14 -44 80 -289h8q60 253 70 289l123 436h288l-352 -1026q-38 -101 -76.5 -169.5t-91 -119.5t-120 -74.5t-156.5 -23.5q-76 0 -144 20l54 230q58 -13 67 -13q133 0 178 133l15 54zM207 1178q15 136 72 206t141 70q47 0 95 -22.5t86 -45t61 -22.5 q26 0 42.5 20.5t28.5 69.5h154q-17 -135 -73 -205.5t-140 -70.5q-47 0 -95 23t-86 46t-61 23q-27 0 -44.5 -21t-27.5 -71h-153z" />
<glyph unicode="&#x2000;" horiz-adv-x="997" />
<glyph unicode="&#x2001;" horiz-adv-x="1995" />
<glyph unicode="&#x2002;" horiz-adv-x="997" />
<glyph unicode="&#x2003;" horiz-adv-x="1995" />
<glyph unicode="&#x2004;" horiz-adv-x="665" />
<glyph unicode="&#x2005;" horiz-adv-x="498" />
<glyph unicode="&#x2006;" horiz-adv-x="332" />
<glyph unicode="&#x2007;" horiz-adv-x="1081" />
<glyph unicode="&#x2008;" horiz-adv-x="249" />
<glyph unicode="&#x2009;" horiz-adv-x="399" />
<glyph unicode="&#x200a;" horiz-adv-x="110" />
<glyph unicode="&#x2010;" horiz-adv-x="679" d="M88 412v213h504v-213h-504z" />
<glyph unicode="&#x2011;" horiz-adv-x="679" d="M88 412v213h504v-213h-504z" />
<glyph unicode="&#x2012;" horiz-adv-x="1081" d="M88 422v192h905v-192h-905z" />
<glyph unicode="&#x2013;" horiz-adv-x="983" d="M88 422v192h807v-192h-807z" />
<glyph unicode="&#x2014;" horiz-adv-x="1638" d="M88 422v192h1462v-192h-1462z" />
<glyph unicode="&#x2015;" horiz-adv-x="1638" d="M88 422v192h1462v-192h-1462z" />
<glyph unicode="&#x2016;" horiz-adv-x="925" d="M176 -512v2048h197v-2048h-197zM553 -512v2048h197v-2048h-197z" />
<glyph unicode="&#x2018;" horiz-adv-x="614" d="M113 961q0 297 290 438l66 -131q-94 -47 -139 -108.5t-45 -151.5q6 2 20 2q66 0 112 -41.5t46 -108.5q0 -75 -44.5 -121.5t-113.5 -46.5q-94 0 -143 70.5t-49 198.5z" />
<glyph unicode="&#x2019;" horiz-adv-x="614" d="M145 852q95 47 140 108.5t45 151.5q-6 -2 -19 -2q-67 0 -112 41t-45 109q0 76 43.5 121.5t113.5 45.5q93 0 143 -70t50 -198q0 -295 -293 -438z" />
<glyph unicode="&#x201a;" horiz-adv-x="614" d="M145 -215q95 47 140 108.5t45 151.5q-6 -2 -19 -2q-67 0 -112 41t-45 109q0 76 43.5 121.5t113.5 45.5q93 0 143 -70t50 -198q0 -295 -293 -438z" />
<glyph unicode="&#x201c;" horiz-adv-x="1099" d="M113 961q0 297 290 438l66 -131q-94 -47 -139 -108.5t-45 -151.5q6 2 20 2q66 0 112 -41.5t46 -108.5q0 -75 -44.5 -121.5t-113.5 -46.5q-94 0 -143 70.5t-49 198.5zM596 961q0 295 293 438l65 -131q-94 -47 -139 -108.5t-45 -151.5q6 2 21 2q66 0 110.5 -41.5 t44.5 -108.5q0 -76 -43.5 -122t-111.5 -46q-94 0 -144.5 71t-50.5 198z" />
<glyph unicode="&#x201d;" horiz-adv-x="1099" d="M145 852q95 47 140 108.5t45 151.5q-6 -2 -19 -2q-67 0 -112 41t-45 109q0 76 43.5 121.5t113.5 45.5q93 0 143 -70t50 -198q0 -295 -293 -438zM631 852q94 47 139 108.5t45 151.5q-6 -2 -20 -2q-66 0 -112 41.5t-46 108.5q0 75 44.5 121t113.5 46q94 0 143 -69.5 t49 -198.5q0 -296 -291 -438z" />
<glyph unicode="&#x201e;" horiz-adv-x="1099" d="M145 -215q95 47 140 108.5t45 151.5q-6 -2 -19 -2q-67 0 -112 41t-45 109q0 76 43.5 121.5t113.5 45.5q93 0 143 -70t50 -198q0 -295 -293 -438zM631 -215q94 47 139 108.5t45 151.5q-6 -2 -20 -2q-66 0 -112 41.5t-46 108.5q0 75 44.5 121t113.5 46q94 0 143 -69.5 t49 -198.5q0 -296 -291 -438z" />
<glyph unicode="&#x2020;" horiz-adv-x="1044" d="M90 881v241l330 -18l-19 354h242l-18 -354l329 18v-241l-329 16l18 -1061h-242l19 1061z" />
<glyph unicode="&#x2021;" horiz-adv-x="1044" d="M90 172v242l330 -25l-19 258l19 258l-330 -24v241l330 -18l-19 354h242l-18 -354l329 18v-241l-329 24l18 -258l-18 -258l329 25v-242l-329 18l18 -354h-242l19 354z" />
<glyph unicode="&#x2022;" horiz-adv-x="706" d="M82 537q0 122 77.5 203t192.5 81q116 0 194.5 -81t78.5 -203q0 -121 -78.5 -203t-194.5 -82q-114 0 -192 82t-78 203z" />
<glyph unicode="&#x2026;" horiz-adv-x="2002" d="M158 164q0 82 51 136t129 54t130 -54t52 -136q0 -80 -52 -134.5t-130 -54.5q-77 0 -128.5 54.5t-51.5 134.5zM836 164q0 82 52 136t130 54t130 -54t52 -136q0 -80 -52 -134.5t-130 -54.5t-130 54.5t-52 134.5zM1516 164q0 82 51 136t129 54t130 -54t52 -136 q0 -80 -52 -134.5t-130 -54.5q-77 0 -128.5 54.5t-51.5 134.5z" />
<glyph unicode="&#x202f;" horiz-adv-x="399" />
<glyph unicode="&#x2030;" horiz-adv-x="2557" d="M53 938q0 196 92 309t240 113t241 -113t93 -309q0 -197 -93 -311.5t-241 -114.5t-240 114.5t-92 311.5zM262 938q0 -134 34 -196t89 -62t89 62t34 196q0 133 -33.5 193.5t-89.5 60.5t-89.5 -60.5t-33.5 -193.5zM430 -25l721 1385h174l-721 -1385h-174zM1036 401 q0 196 92 309t240 113q149 0 241.5 -113t92.5 -309q0 -198 -92.5 -312t-241.5 -114q-148 0 -240 114.5t-92 311.5zM1245 401q0 -134 34 -196t89 -62q56 0 90.5 62t34.5 196t-34.5 194t-90.5 60q-123 0 -123 -254zM1839 401q0 196 92.5 309t241.5 113q148 0 240 -113t92 -309 q0 -197 -92 -311.5t-240 -114.5q-149 0 -241.5 114t-92.5 312zM2048 401q0 -134 34.5 -196t90.5 -62q55 0 89 62t34 196q0 254 -123 254q-56 0 -90.5 -60t-34.5 -194z" />
<glyph unicode="&#x2032;" horiz-adv-x="614" d="M164 727l43 678h301l-53 -297l-97 -381h-194z" />
<glyph unicode="&#x2033;" horiz-adv-x="1099" d="M164 727l43 678h301l-53 -297l-97 -381h-194zM647 727l45 678h299l-51 -297l-96 -381h-197z" />
<glyph unicode="&#x2039;" horiz-adv-x="598" d="M100 410v213l275 295l112 -91l-227 -311l227 -311l-112 -90z" />
<glyph unicode="&#x203a;" horiz-adv-x="598" d="M111 205l227 311l-227 311l112 91l275 -295v-213l-275 -295z" />
<glyph unicode="&#x203d;" horiz-adv-x="983" d="M33 1210q77 87 191.5 137t232.5 50q193 0 316.5 -92.5t123.5 -247.5q0 -67 -20 -126.5t-51.5 -103t-69.5 -82t-74.5 -71t-65.5 -63.5t-44.5 -66t-10.5 -72h-209l-37 348l-22 221h242l-9 -221v-55q3 4 16 22.5t16.5 24t14.5 22t14.5 24.5t12 24t11.5 27t7 27t5.5 31.5 t1.5 32.5q0 78 -53.5 124t-135.5 46q-70 0 -125.5 -27.5t-111.5 -84.5zM266 164q0 82 51 136t129 54t130.5 -54t52.5 -136q0 -80 -52.5 -134.5t-130.5 -54.5q-77 0 -128.5 54.5t-51.5 134.5z" />
<glyph unicode="&#x2044;" horiz-adv-x="196" d="M-350 -25l721 1385h174l-721 -1385h-174z" />
<glyph unicode="&#x205f;" horiz-adv-x="498" />
<glyph unicode="&#x20a1;" horiz-adv-x="1081" d="M111 643q0 278 127 453.5t342 216.5l24 213h103l-25 -201h23q19 0 59 -4l24 205h103l-29 -232q117 -50 193 -145l-166 -164q-27 31 -55 55l-99 -827q87 21 154 106l168 -155q-149 -172 -350 -187l-25 -202h-102l24 202q-41 6 -80 15l-26 -217h-103l31 252 q-147 71 -231 228t-84 388zM414 653q0 -179 51 -293l82 684q-133 -103 -133 -391zM555 248q35 -24 78 -33l102 872q-30 5 -39 5q-29 0 -41 -2z" />
<glyph unicode="&#x20a4;" horiz-adv-x="1081" d="M98 0v186q83 37 140.5 104.5t72.5 153.5h-205v142l152 10h45q-3 11 -29 98h-168v142l119 12h6q-6 27 -6 57q0 191 123 305.5t316 114.5q210 0 354 -166l-164 -164q-71 86 -162 86q-84 0 -131 -48t-47 -144q0 -27 2 -41h324v-154h-291q9 -36 20 -98h271v-152h-262 q-14 -96 -91 -182v-8h531v-254h-920z" />
<glyph unicode="&#x20a6;" horiz-adv-x="1081" d="M6 483v107l144 12v98h-144v107l144 12v481h278l164 -481h123v481h217v-481h141v-119h-141v-98h141v-119h-141v-483h-279l-164 483h-122v-483h-217v483h-144zM311 1077l27 -258h55l-74 258h-8zM350 700l8 -98h97l-29 98h-76zM627 700l28 -98h76l-8 98h-96zM688 483 l74 -260h8l-27 260h-55z" />
<glyph unicode="&#x20a7;" horiz-adv-x="1081" d="M6 778v174l127 11v337h352q89 0 163 -18t136 -56t103 -104.5t55 -156.5h121v-187h-119q-28 -167 -155.5 -255.5t-303.5 -88.5h-67v-434h-285v778h-127zM418 625h51q76 0 126 40t67 113h-244v-153zM418 965h244q-36 147 -193 147h-51v-147z" />
<glyph unicode="&#x20ab;" horiz-adv-x="1081" d="M133 627q0 110 50.5 195.5t126.5 128t161 42.5q65 0 109.5 -19t89.5 -61l-8 138v30h-295v152h295v100h247v-100h150v-139l-150 -13v-823h-204l-19 74h-6q-87 -94 -217 -94q-153 0 -241.5 102t-88.5 287zM160 0v152h817v-152h-817zM387 625q0 -94 36 -141.5t101 -47.5 q75 0 138 74v227q-60 54 -130 54q-59 0 -102 -45.5t-43 -120.5z" />
<glyph unicode="&#x20ac;" horiz-adv-x="1081" d="M43 440v142l111 8q-2 18 -2 53t2 53h-111v140l127 10q47 227 192 353t351 126q93 0 180.5 -42t153.5 -118l-168 -161q-88 88 -177 88q-87 0 -145.5 -63t-83.5 -181h438v-152h-456v-43q0 -41 2 -59h372v-154h-352q28 -113 87 -172t145 -59q107 0 188 110l166 -155 q-153 -189 -373 -189q-196 0 -335.5 120.5t-184.5 344.5h-127z" />
<glyph unicode="&#x20b1;" horiz-adv-x="1081" d="M6 709v106l127 10v95h-127v106l127 10v264h352q164 0 280 -63t161 -199h137v-118h-115q2 -18 2 -56q0 -25 -2 -37h115v-118h-137q-30 -90 -97 -153t-154 -92.5t-190 -29.5h-67v-434h-285v709h-127zM418 625h51q112 0 164 84h-215v-84zM418 827h252q2 12 2 37q0 40 -2 56 h-252v-93zM418 1038h213q-51 74 -162 74h-51v-74z" />
<glyph unicode="&#x20b2;" horiz-adv-x="1081" d="M78 643q0 276 121.5 452t328.5 218v213h201v-207q158 -27 285 -160l-166 -164q-50 49 -97.5 73t-107.5 24q-128 0 -196 -115.5t-68 -323.5q0 -211 70 -322.5t200 -111.5q57 0 96 27v250h-141v245h410v-614q-125 -113 -285 -143v-209h-201v209q-205 35 -327.5 206 t-122.5 453z" />
<glyph unicode="&#x20b5;" horiz-adv-x="1081" d="M111 643q0 280 129.5 456.5t347.5 215.5v192h166v-184q167 -22 284 -158l-166 -161q-56 62 -118 79v-864q73 23 135 100l168 -155q-129 -150 -303 -180v-209h-166v205q-216 29 -346.5 200.5t-130.5 462.5zM414 653q0 -169 44.5 -277.5t129.5 -146.5v840 q-86 -39 -130 -146t-44 -270z" />
<glyph unicode="&#x20b9;" horiz-adv-x="1081" d="M141 412v239h133q195 0 236 146h-369v139l152 12h215q-21 61 -78.5 87t-155.5 26h-133v239h811v-151h-270q100 -69 125 -201h145v-151h-143q-29 -240 -242 -334l351 -463h-338l-293 412h-146z" />
<glyph unicode="&#x20ba;" horiz-adv-x="1081" d="M29 367v165l155 84v113l-155 -84v166l155 84v405h301v-258l299 158v-166l-299 -157v-113l299 158v-166l-299 -158v-342q118 12 198.5 85t80.5 179q0 31 -4 62l248 57q14 -57 14 -104q0 -279 -219.5 -425t-618.5 -135v476z" />
<glyph unicode="&#x2113;" horiz-adv-x="962" d="M20 401l201 125v451q0 248 104.5 373t278.5 125q152 0 241 -93.5t89 -255.5q0 -190 -98 -342.5t-322 -318.5v-51q0 -96 44 -142.5t114 -46.5q89 0 192 90l109 -182q-178 -158 -348 -158q-146 0 -254.5 78t-139.5 223l-98 -59zM514 750q91 88 134.5 178t43.5 198 q0 63 -21 96t-57 33q-43 0 -71.5 -57.5t-28.5 -179.5v-268z" />
<glyph unicode="&#x2117;" horiz-adv-x="1536" d="M92 666q0 124 35.5 232.5t98.5 188.5t147.5 138t185 87t209.5 29q136 0 258 -47t214.5 -131.5t147 -213.5t54.5 -283q0 -155 -54.5 -285t-147 -216.5t-214.5 -134.5t-258 -48t-258.5 48t-215.5 134.5t-147.5 216.5t-54.5 285zM231 666q0 -123 41.5 -228.5t114 -178 t171 -113t210.5 -40.5t210.5 40.5t171 113t114 178t41.5 228.5q0 247 -153.5 400t-383.5 153t-383.5 -153t-153.5 -400zM489 285v747h297q77 0 139 -14t111 -44.5t76 -83t27 -124.5q0 -98 -49.5 -166t-127.5 -98.5t-176 -30.5h-79v-186h-218zM707 627h63q156 0 156 131 q0 112 -156 112h-63v-243z" />
<glyph unicode="&#x2120;" horiz-adv-x="1396" d="M37 817l100 123q83 -76 164 -76q59 0 59 43q0 5 -1 9.5t-2 8t-4.5 7t-5.5 6t-7 6t-8 5.5t-10 6t-11 5.5t-13 6l-13 6.5l-88 39q-127 60 -127 190q0 86 67 145.5t178 59.5q116 0 224 -82l-93 -125q-85 57 -141 57q-59 0 -59 -45q0 -19 16.5 -30.5t59.5 -28.5l86 -37 q66 -26 99.5 -70t33.5 -118q0 -85 -70.5 -148t-183.5 -63q-138 0 -250 100zM647 741v643h227l78 -184l41 -137h8l43 137l76 184h230v-643h-191v197l23 236h-8l-109 -338h-133l-109 338h-8l23 -236v-197h-191z" />
<glyph unicode="&#x2122;" horiz-adv-x="1396" d="M8 1206v178h551v-178h-178v-465h-195v465h-178zM647 741v643h227l78 -184l41 -137h8l43 137l76 184h230v-643h-191v197l23 236h-8l-109 -338h-133l-109 338h-8l23 -236v-197h-191z" />
<glyph unicode="&#x2126;" horiz-adv-x="1490" d="M86 0v244h233v8q-81 81 -140.5 207.5t-59.5 275.5q0 297 171.5 469t454.5 172t455 -172t172 -469q0 -149 -60 -275t-141 -208v-8h232v-244h-565v199q225 185 225 518q0 182 -86 290.5t-232 108.5t-231.5 -108.5t-85.5 -290.5q0 -336 225 -518v-199h-567z" />
<glyph unicode="&#x212e;" horiz-adv-x="1638" d="M94 666q0 187 97.5 345.5t265 250.5t364.5 92t364 -92t264 -250.5t97 -345.5v-19h-1177q-9 0 -9 -8v-375q0 -18 17 -43q85 -96 200.5 -149.5t245.5 -53.5q137 0 258.5 61t208.5 167h107q-102 -124 -253.5 -196.5t-322.5 -72.5q-197 0 -364.5 92t-265 251t-97.5 346z M360 696q0 -10 9 -10h903q10 0 10 10v377q0 23 -18 45q-88 92 -202 143.5t-239 51.5q-129 0 -243 -53t-201 -148q-19 -23 -19 -47v-369z" />
<glyph unicode="&#x2153;" horiz-adv-x="1714" d="M94 1110v137q79 11 127 30.5t103 57.5h176v-798h-224v573h-182zM336 -25l721 1385h174l-721 -1385h-174zM999 137l134 105q71 -99 170 -99q49 0 81.5 26.5t32.5 70.5q0 104 -190 104v127q162 0 162 98q0 39 -28 62.5t-73 23.5q-65 0 -131 -80l-125 111q66 72 134 104.5 t161 32.5q115 0 196 -61t81 -162q0 -117 -115 -184q65 -26 105 -76t40 -117q0 -108 -91.5 -178t-217.5 -70q-105 0 -189 42t-137 120z" />
<glyph unicode="&#x2154;" horiz-adv-x="1738" d="M59 1196q127 164 306 164q134 0 214 -71.5t80 -198.5q0 -47 -15.5 -93t-50.5 -96.5t-64 -85t-83 -94.5h242v-184h-594v118q179 145 265.5 236.5t86.5 159.5q0 60 -30.5 93.5t-85.5 33.5q-72 0 -146 -97zM438 -25l721 1385h174l-721 -1385h-174zM1024 137l133 105 q71 -99 168 -99q51 0 84 26t33 71q0 104 -191 104v127q160 0 160 98q0 40 -26.5 63t-71.5 23q-65 0 -131 -80l-125 111q66 72 133.5 104.5t159.5 32.5q117 0 197.5 -61t80.5 -162q0 -115 -115 -184q65 -27 105.5 -76.5t40.5 -116.5q0 -108 -91.5 -178t-219.5 -70 q-104 0 -187.5 42t-136.5 120z" />
<glyph unicode="&#x215b;" horiz-adv-x="1714" d="M94 1110v137q79 11 127 30.5t103 57.5h176v-798h-224v573h-182zM356 -25l721 1385h174l-721 -1385h-174zM1022 203q0 64 42 118t103 89v8q-57 40 -87.5 84t-30.5 102q0 100 80.5 159.5t199.5 59.5q122 0 201.5 -59.5t79.5 -159.5q0 -54 -34 -100t-87 -76v-8 q66 -35 105.5 -89.5t39.5 -125.5q0 -97 -86.5 -163.5t-218.5 -66.5q-133 0 -220 66.5t-87 161.5zM1223 225q0 -43 29.5 -72.5t76.5 -29.5q44 0 75.5 29t31.5 69q0 15 -6 28.5t-12.5 22t-24 19.5t-27.5 16t-36.5 17.5t-37.5 17.5q-69 -48 -69 -117zM1245 598q0 -39 29 -63 t88 -48q51 48 51 103q0 38 -24 60t-62 22q-34 0 -58 -21t-24 -53z" />
<glyph unicode="&#x215c;" horiz-adv-x="1738" d="M55 674l133 104q71 -98 170 -98q49 0 82 26t33 70q0 105 -190 105v127q161 0 161 98q0 40 -27 63t-73 23q-65 0 -131 -80l-125 111q68 72 136 104.5t159 32.5q115 0 197 -62t82 -161q0 -117 -117 -185q65 -26 105 -76.5t40 -117.5q0 -107 -91 -176.5t-218 -69.5 q-104 0 -189 42t-137 120zM422 -25l721 1385h172l-719 -1385h-174zM1047 203q0 64 42 118t103 89v8q-119 83 -119 186q0 100 80 159.5t199 59.5q123 0 202.5 -59t79.5 -160q0 -54 -34 -100t-87 -76v-8q146 -77 146 -215q0 -96 -87.5 -163t-219.5 -67t-218.5 66.5 t-86.5 161.5zM1247 225q0 -43 30 -72.5t75 -29.5t75.5 29t30.5 69q0 13 -3 24t-11.5 21t-15 16.5t-23.5 15.5l-25.5 13.5t-31.5 15t-33 15.5q-68 -49 -68 -117zM1270 598q0 -39 29 -63t87 -48q52 49 52 103q0 37 -25 59.5t-61 22.5q-34 0 -58 -21t-24 -53z" />
<glyph unicode="&#x215d;" horiz-adv-x="1738" d="M55 674l133 104q39 -52 78.5 -75t91.5 -23q50 0 83.5 34.5t33.5 84.5q0 56 -34.5 88.5t-86.5 32.5q-61 0 -118 -48l-95 66l35 397h483v-186h-309l-12 -113q52 15 94 15q110 0 185 -72t75 -191t-87.5 -197.5t-221.5 -78.5q-216 0 -328 162zM422 -25l721 1385h172 l-719 -1385h-174zM1047 203q0 64 42 118t103 89v8q-119 83 -119 186q0 100 80 159.5t199 59.5q123 0 202.5 -59t79.5 -160q0 -54 -34 -100t-87 -76v-8q146 -77 146 -215q0 -96 -87.5 -163t-219.5 -67t-218.5 66.5t-86.5 161.5zM1247 225q0 -43 30 -72.5t75 -29.5t75.5 29 t30.5 69q0 13 -3 24t-11.5 21t-15 16.5t-23.5 15.5l-25.5 13.5t-31.5 15t-33 15.5q-68 -49 -68 -117zM1270 598q0 -39 29 -63t87 -48q52 49 52 103q0 37 -25 59.5t-61 22.5q-34 0 -58 -21t-24 -53z" />
<glyph unicode="&#x215e;" horiz-adv-x="1697" d="M61 1149v186h603v-118q-128 -163 -174.5 -310.5t-57.5 -369.5h-233q10 179 60 313.5t159 298.5h-357zM319 -25l721 1385h172l-718 -1385h-175zM1006 203q0 64 42 118t103 89v8q-119 83 -119 186q0 100 80 159.5t199 59.5q123 0 202.5 -59t79.5 -160q0 -54 -33.5 -100 t-86.5 -76v-8q66 -35 105.5 -89.5t39.5 -125.5q0 -96 -87.5 -163t-219.5 -67t-218.5 66.5t-86.5 161.5zM1206 225q0 -43 30 -72.5t75 -29.5t75.5 29t30.5 69q0 13 -3 24t-11.5 21t-15 16.5t-23.5 15.5l-25.5 13.5t-31.5 15t-33 15.5q-68 -49 -68 -117zM1229 598 q0 -39 29 -63t88 -48q51 48 51 103q0 37 -25 59.5t-61 22.5q-34 0 -58 -21t-24 -53z" />
<glyph unicode="&#x2190;" horiz-adv-x="1263" d="M45 512v8l569 547l142 -162l-307 -270h733v-238h-733l307 -270l-142 -162z" />
<glyph unicode="&#x2191;" horiz-adv-x="1263" d="M80 514l547 569h8l549 -569l-164 -141l-268 307v-733h-240v733l-270 -307z" />
<glyph unicode="&#x2192;" horiz-adv-x="1263" d="M82 397v238h731l-307 270l143 162l570 -547v-8l-570 -547l-143 162l307 270h-731z" />
<glyph unicode="&#x2193;" horiz-adv-x="1263" d="M80 516l162 143l270 -307v731h240v-731l268 307l164 -143l-549 -569h-8z" />
<glyph unicode="&#x2202;" horiz-adv-x="1181" d="M98 379q0 210 123.5 342.5t317.5 132.5q72 0 139.5 -32t120.5 -91v33q0 369 -224 369q-111 0 -210 -93l-129 185q171 151 372 151q232 0 353.5 -166.5t121.5 -453.5q0 -350 -162 -565.5t-421 -215.5q-169 0 -285.5 111.5t-116.5 292.5zM375 397q0 -85 45.5 -131.5 t111.5 -46.5q85 0 149.5 68t94.5 217q-78 121 -203 121q-90 0 -144 -58t-54 -170z" />
<glyph unicode="&#x2206;" horiz-adv-x="1331" d="M70 0v182l415 1170h361l416 -1170v-182h-1192zM410 254h510l-154 467l-96 348h-8l-97 -348z" />
<glyph unicode="&#x220f;" horiz-adv-x="1454" d="M164 -246v1546h1126v-1546h-301v1284h-524v-1284h-301z" />
<glyph unicode="&#x2211;" horiz-adv-x="1093" d="M53 -68l424 594l-401 596v178h950v-253h-586v-9l344 -512l-358 -510v-8h649v-254h-1022v178z" />
<glyph unicode="&#x2212;" horiz-adv-x="1081" d="M70 569v213h942v-213h-942z" />
<glyph unicode="&#x2215;" horiz-adv-x="196" d="M-350 -25l721 1385h174l-721 -1385h-174z" />
<glyph unicode="&#x2219;" horiz-adv-x="1083" d="M358 674q0 80 52.5 134t130.5 54t129 -54t51 -134t-51.5 -135.5t-128.5 -55.5q-78 0 -130.5 55.5t-52.5 135.5z" />
<glyph unicode="&#x221a;" horiz-adv-x="1204" d="M55 756l357 145l202 -602q25 -87 43 -168h9q13 92 30 168l322 1380h201l-443 -1843h-209l-307 842l-151 -64z" />
<glyph unicode="&#x221e;" horiz-adv-x="1667" d="M76 649q0 197 106.5 309.5t282.5 112.5q197 0 336 -188h8q170 221 393 221q164 0 276.5 -116t112.5 -292q0 -216 -115.5 -340.5t-289.5 -124.5q-126 0 -224 57.5t-194 184.5h-8q-144 -188 -336 -188q-146 0 -247 108t-101 256zM297 655q0 -61 42.5 -106t111.5 -45 q117 0 208 135q-46 71 -103 112.5t-116 41.5q-70 0 -106.5 -38t-36.5 -100zM909 717q75 -103 137 -155t140 -52q83 0 133.5 52.5t50.5 127.5q0 90 -54 142.5t-145 52.5q-143 0 -262 -168z" />
<glyph unicode="&#x222b;" horiz-adv-x="798" d="M86 -307l29 217q40 -8 73 -8q77 0 103 60t26 212q0 153 -38.5 460.5t-38.5 479.5q0 93 9 164.5t34.5 138t68 109.5t112 68.5t163.5 25.5q62 0 116 -14l-30 -220q-27 9 -72 9q-77 0 -103 -61t-26 -212q0 -153 38 -460.5t38 -479.5q0 -93 -9 -164t-34 -138t-67 -110 t-111.5 -68.5t-163.5 -25.5q-68 0 -117 17z" />
<glyph unicode="&#x2248;" horiz-adv-x="1081" d="M59 410q135 211 308 211q47 0 90 -16t75.5 -38.5t62 -45t61.5 -38.5t63 -16q79 0 147 117l156 -119q-137 -211 -307 -211q-57 0 -110.5 24t-87.5 53t-76 53t-79 24q-79 0 -147 -117zM59 887q137 211 308 211q47 0 90 -16t75.5 -38.5t62 -45t61.5 -38.5t63 -16 q79 0 147 117l156 -119q-135 -211 -307 -211q-57 0 -110.5 24t-87.5 53t-76 53t-79 24q-79 0 -147 -117z" />
<glyph unicode="&#x2260;" horiz-adv-x="1081" d="M70 332v211h301l149 266h-450v211h567l147 250h193l-148 -250h183v-211h-301l-150 -266h451v-211h-568l-147 -250h-191l146 250h-182z" />
<glyph unicode="&#x2264;" horiz-adv-x="1081" d="M70 0v213h942v-213h-942zM70 606v250l942 291v-248l-353 -94l-284 -70v-8l284 -70l353 -94v-248z" />
<glyph unicode="&#x2265;" horiz-adv-x="1081" d="M70 0v213h942v-213h-942zM70 315v248l352 94l285 70v8l-285 70l-352 94v248l942 -291v-250z" />
<glyph unicode="&#x231c;" horiz-adv-x="704" d="M178 0v1415h432v-160h-207v-1255h-225z" />
<glyph unicode="&#x231d;" horiz-adv-x="704" d="M94 1255v160h432v-1415h-223v1255h-209z" />
<glyph unicode="&#x231e;" horiz-adv-x="704" d="M178 -115v1415h225v-1255h207v-160h-432z" />
<glyph unicode="&#x231f;" horiz-adv-x="704" d="M94 45h209v1255h223v-1415h-432v160z" />
<glyph unicode="&#x25a0;" horiz-adv-x="706" d="M111 291v493h485v-493h-485z" />
<glyph unicode="&#x25b2;" horiz-adv-x="1212" d="M39 43v4l563 1069h8l561 -1069v-4h-1132z" />
<glyph unicode="&#x25b3;" horiz-adv-x="1212" d="M39 43v4l563 1069h8l561 -1069v-4h-1132zM379 238h457l-230 456z" />
<glyph unicode="&#x25b6;" horiz-adv-x="1212" d="M109 10v1133h4l1071 -561v-9l-1071 -563h-4z" />
<glyph unicode="&#x25b7;" horiz-adv-x="1212" d="M109 10v1133h4l1071 -561v-9l-1071 -563h-4zM305 348l455 230l-455 227v-457z" />
<glyph unicode="&#x25bc;" horiz-adv-x="1212" d="M39 1108v4h1132v-4l-561 -1069h-8z" />
<glyph unicode="&#x25bd;" horiz-adv-x="1212" d="M39 1108v4h1132v-4l-561 -1071h-8zM379 915l227 -454l230 454h-457z" />
<glyph unicode="&#x25c0;" horiz-adv-x="1212" d="M29 573v9l1069 561h4v-1133h-4z" />
<glyph unicode="&#x25c1;" horiz-adv-x="1212" d="M29 573v9l1069 561h4v-1133h-4zM453 578l454 -230v457z" />
<glyph unicode="&#x25c6;" horiz-adv-x="706" d="M16 537l338 337l336 -337l-336 -336z" />
<glyph unicode="&#x25c9;" horiz-adv-x="993" d="M82 537q0 183 118.5 301t295.5 118q176 0 294.5 -118t118.5 -301t-118 -300.5t-295 -117.5t-295.5 117.5t-118.5 300.5zM242 537q0 -117 73.5 -192t180.5 -75q109 0 181.5 75t72.5 192q0 118 -72.5 192t-181.5 74q-108 0 -181 -74t-73 -192zM360 537q0 61 39.5 102 t96.5 41q59 0 98 -41t39 -102q0 -60 -39.5 -101t-97.5 -41q-57 0 -96.5 41t-39.5 101z" />
<glyph unicode="&#x25ca;" horiz-adv-x="1122" d="M106 676l332 696h246l332 -696l-332 -696h-246zM354 676l92 -197l111 -248h8l111 248l92 197l-92 196l-111 248h-8l-111 -248z" />
<glyph unicode="&#x25fc;" horiz-adv-x="1013" d="M0 0v1014h1014v-1014h-1014z" />
<glyph unicode="&#x2610;" horiz-adv-x="1652" d="M152 -20v1269l153 133h1196v-1249l-133 -153h-1216zM270 98h1049v1102h-1049v-1102z" />
<glyph unicode="&#x2611;" horiz-adv-x="1652" d="M152 -20v1269l153 133h938q108 155 230 283l184 -162q-87 -84 -156 -166v-1204l-133 -153h-1216zM270 98h1049v992q-238 -370 -365 -836l-282 -33q-106 292 -287 557l193 125q112 -183 210 -457h9q120 406 329 754h-856v-1102z" />
<glyph unicode="&#x266a;" horiz-adv-x="1114" d="M51 119q0 111 101.5 190.5t246.5 79.5q85 0 121 -24v1056h160q19 -35 44.5 -58.5t102.5 -76.5q141 -96 198.5 -192t57.5 -222q0 -81 -29 -162.5t-71 -140.5l-100 41q28 88 28 189q0 94 -60.5 175.5t-164.5 115.5v-740q0 -196 -108.5 -301.5t-296.5 -105.5q-94 0 -162 45 t-68 131z" />
<glyph unicode="&#x2713;" horiz-adv-x="1325" d="M14 571l193 125q140 -222 256 -512h8q109 367 286 690t386 535l184 -160q-223 -210 -406 -524t-300 -733l-283 -33q-65 175 -140.5 318t-183.5 294z" />
<glyph unicode="&#x2752;" horiz-adv-x="849" d="M111 209v520l137 117h491v-500l-116 -137h-512zM211 309h362v371h-362v-371z" />
<glyph unicode="&#x27e6;" horiz-adv-x="894" d="M178 -311v1761h623v-160h-191v-1442h191v-159h-623zM352 -152h103v1442h-103v-1442z" />
<glyph unicode="&#x27e7;" horiz-adv-x="894" d="M94 -152h191v1442h-191v160h623v-1761h-623v159zM440 -152h103v1442h-103v-1442z" />
<glyph unicode="&#x2e22;" horiz-adv-x="704" d="M178 569v881h432v-160h-207v-721h-225z" />
<glyph unicode="&#x2e23;" horiz-adv-x="704" d="M94 1290v160h432v-881h-223v721h-209z" />
<glyph unicode="&#x2e24;" horiz-adv-x="704" d="M178 -311v880h225v-721h207v-159h-432z" />
<glyph unicode="&#x2e25;" horiz-adv-x="704" d="M94 -152h209v721h223v-880h-432v159z" />
<glyph unicode="&#xfb00;" horiz-adv-x="1343" d="M49 780v224l135 10v47q0 81 22 148t66.5 119.5t120.5 82t176 29.5q114 0 211 -37l-55 -223q-52 22 -119 22q-55 0 -88 -35t-33 -104v-47h346v53q0 84 20.5 152.5t63.5 123t116.5 85t172.5 30.5t203 -37l-53 -221q-61 21 -105 21q-116 0 -116 -146v-61h182v-236h-182v-780 h-302v780h-346v-780h-301v780h-135z" />
<glyph />
<glyph horiz-adv-x="425" />
<glyph horiz-adv-x="811" d="M106 0v254h148v827h-148v254h599v-254h-150v-827h150v-254h-599z" />
<glyph horiz-adv-x="811" d="M106 0v254h148v827h-148v254h599v-254h-150v-827h150v-254h-599zM252 1438l166 245h319l-245 -245h-240z" />
<glyph horiz-adv-x="811" d="M61 1683h232l108 -124h9l108 124h232l-197 -245h-295zM106 0v254h148v827h-148v254h599v-254h-150v-827h150v-254h-599z" />
<glyph horiz-adv-x="811" d="M61 1438l197 245h295l197 -245h-232l-108 125h-9l-108 -125h-232zM106 0v254h148v827h-148v254h599v-254h-150v-827h150v-254h-599z" />
<glyph horiz-adv-x="811" d="M59 1577q0 62 40.5 102.5t103.5 40.5t103 -40.5t40 -102.5t-40 -102.5t-103 -40.5t-103.5 40.5t-40.5 102.5zM106 0v254h148v827h-148v254h599v-254h-150v-827h150v-254h-599zM465 1577q0 62 40 102.5t103 40.5t103.5 -40.5t40.5 -102.5t-40.5 -102.5t-103.5 -40.5 t-103 40.5t-40 102.5z" />
<glyph horiz-adv-x="811" d="M106 0v254h148v827h-148v254h599v-254h-150v-827h150v-254h-599zM231 1593q0 69 50 113.5t125 44.5t124.5 -44.5t49.5 -113.5t-49.5 -113t-124.5 -44t-125 44t-50 113z" />
<glyph horiz-adv-x="811" d="M106 0v254h148v827h-148v254h599v-254h-150v-827h150v-254h-599zM240 -305q0 69 47 113.5t119 44.5q73 0 120 -44.5t47 -113.5t-47 -113.5t-120 -44.5q-72 0 -119 44.5t-47 113.5z" />
<glyph horiz-adv-x="811" d="M74 1683h319l166 -245h-242zM106 0v254h148v827h-148v254h599v-254h-150v-827h150v-254h-599z" />
<glyph horiz-adv-x="811" d="M106 0v254h148v827h-148v254h599v-254h-150v-827h150v-254h-599zM240 1665l32 150q346 -8 346 -187q0 -99 -78.5 -151t-205.5 -62l-25 119q44 9 68 22.5t24 38.5q0 30 -37.5 47t-123.5 23z" />
<glyph horiz-adv-x="811" d="M106 0v254h148v827h-148v254h599v-254h-150v-827h150v-254h-599zM117 1475v190h577v-190h-577z" />
<glyph horiz-adv-x="811" d="M106 0v254h148v827h-148v254h599v-254h-150v-827h150v-254h-191q-111 -90 -111 -184q0 -37 25.5 -57.5t60.5 -20.5q33 0 74 29l68 -152q-38 -31 -98.5 -51.5t-114.5 -20.5q-102 0 -169 51.5t-67 141.5q0 83 46.5 153t101.5 111h-224z" />
<glyph horiz-adv-x="811" d="M57 1440q14 134 75 206t144 72q48 0 96 -23t86.5 -46t63.5 -23q59 0 78 92h154q-14 -134 -75 -206t-144 -72q-48 0 -96 23t-86.5 46t-63.5 23q-59 0 -78 -92h-154zM106 0v254h148v827h-148v254h599v-254h-150v-827h150v-254h-599z" />
<glyph horiz-adv-x="792" d="M-10 537l280 884h256l281 -884h-227l-52 204h-268l-53 -204h-217zM301 905h186l-20 78q-9 32 -33.5 130.5t-38.5 148.5h-4q-11 -49 -35.5 -145t-33.5 -134z" />
<glyph horiz-adv-x="833" d="M102 537v884h314q332 0 332 -217q0 -63 -38 -117t-112 -77v-4q193 -38 193 -207q0 -129 -97.5 -195.5t-251.5 -66.5h-340zM315 698h109q158 0 158 117q0 105 -158 105h-109v-222zM315 1067h91q68 0 101.5 28t33.5 76q0 89 -133 89h-93v-193z" />
<glyph horiz-adv-x="798" d="M61 971q0 211 125.5 339t305.5 128q82 0 151 -33t115 -86l-115 -129q-76 63 -147 63q-93 0 -154 -75.5t-61 -200.5q0 -130 56 -203.5t152 -73.5q98 0 168 80l115 -127q-112 -133 -295 -133q-86 0 -161 29t-132 84.5t-90 142.5t-33 195z" />
<glyph horiz-adv-x="874" d="M102 537v884h256q215 0 335 -108t120 -328q0 -223 -118.5 -335.5t-323.5 -112.5h-269zM315 705h37q116 0 179 64.5t63 213.5q0 151 -62 209.5t-182 58.5h-35v-546z" />
<glyph horiz-adv-x="755" d="M102 537v884h570v-176h-357v-166h303v-176h-303v-190h369v-176h-582z" />
<glyph horiz-adv-x="724" d="M102 537v884h574v-176h-361v-196h308v-177h-308v-335h-213z" />
<glyph horiz-adv-x="882" d="M61 973q0 143 61 250.5t161.5 161t224.5 53.5q153 0 283 -113l-121 -135q-35 33 -70.5 48t-91.5 15q-102 0 -164.5 -72.5t-62.5 -199.5q0 -135 61 -208t182 -73q59 0 90 25v143h-143v172h336v-411q-59 -46 -139 -77.5t-166 -31.5q-125 0 -223.5 50.5t-158 154.5 t-59.5 248z" />
<glyph horiz-adv-x="925" d="M102 537v884h213v-338h297v338h213v-884h-213v364h-297v-364h-213z" />
<glyph horiz-adv-x="415" d="M102 537v884h213v-884h-213z" />
<glyph horiz-adv-x="704" d="M18 684l146 107q46 -91 123 -91q55 0 80.5 34t25.5 120v567h213v-585q0 -138 -75 -227t-222 -89q-198 0 -291 164z" />
<glyph horiz-adv-x="847" d="M102 537v884h213v-350h7l253 350h236l-270 -352l319 -532h-231l-213 370l-101 -131v-239h-213z" />
<glyph horiz-adv-x="714" d="M102 537v884h213v-708h351v-176h-564z" />
<glyph horiz-adv-x="1052" d="M102 537v884h224l149 -387l53 -151h7l51 151l141 387h225v-884h-198v307q0 73 28 303h-6l-76 -203l-135 -332h-82l-133 332l-76 203h-4q27 -221 27 -303v-307h-195z" />
<glyph horiz-adv-x="913" d="M102 537v884h222l221 -426l88 -196h6q-25 200 -25 327v295h199v-884h-221l-221 430l-88 192h-4q22 -220 22 -323v-299h-199z" />
<glyph horiz-adv-x="944" d="M61 983q0 214 112 334.5t298 120.5t299 -121.5t113 -333.5q0 -214 -113.5 -338.5t-298.5 -124.5t-297.5 124.5t-112.5 338.5zM281 983q0 -129 51 -206t139 -77q89 0 141 77.5t52 205.5t-51.5 199t-141.5 71t-140 -71t-50 -199z" />
<glyph horiz-adv-x="835" d="M102 537v884h336q76 0 137.5 -15t111 -47t77 -88.5t27.5 -133.5t-28.5 -136.5t-78.5 -96t-112.5 -55t-133.5 -18.5h-123v-294h-213zM315 997h107q160 0 160 140q0 61 -40 88.5t-120 27.5h-107v-256z" />
<glyph horiz-adv-x="944" d="M55 981q0 215 112.5 336t299.5 121q186 0 299 -122t113 -335q0 -172 -76 -287.5t-207 -154.5q53 -76 195 -76q51 0 102 14l37 -151q-60 -33 -164 -33q-142 0 -244 64t-149 173q-147 30 -232.5 148.5t-85.5 302.5zM274 981q0 -133 51.5 -210t141.5 -77q89 0 142 77.5 t53 209.5q0 129 -52.5 200.5t-142.5 71.5q-91 0 -142 -71t-51 -201z" />
<glyph horiz-adv-x="851" d="M102 537v884h330q75 0 135 -14t109.5 -44.5t76.5 -85.5t27 -132q0 -182 -155 -256l200 -352h-237l-166 313h-107v-313h-213zM315 1016h101q77 0 117 31.5t40 91.5t-39 87t-118 27h-101v-237z" />
<glyph horiz-adv-x="765" d="M45 649l123 144q48 -41 109 -66t118 -25q58 0 84.5 22.5t26.5 59.5q0 22 -17.5 40t-33.5 26.5t-63 28.5q-9 4 -13 6l-115 49q-87 37 -134.5 93t-47.5 144q0 112 92 190.5t234 78.5q76 0 153.5 -31.5t136.5 -87.5l-108 -131q-99 72 -191 72q-51 0 -76.5 -20t-25.5 -54 q0 -9 2 -16.5t6.5 -14.5t9 -12.5t13.5 -11.5t15.5 -10t19.5 -10t20.5 -9.5t23 -10t23.5 -10.5l117 -49q94 -39 134 -89.5t40 -135.5q0 -124 -91 -206.5t-247 -82.5q-93 0 -181.5 32.5t-156.5 96.5z" />
<glyph horiz-adv-x="770" d="M33 1245v176h704v-176h-243v-708h-213v708h-248z" />
<glyph horiz-adv-x="917" d="M98 952v469h213v-491q0 -124 37.5 -177t114.5 -53q76 0 113.5 53t37.5 177v491h205v-469q0 -223 -88 -327.5t-268 -104.5q-187 0 -276 104t-89 328z" />
<glyph horiz-adv-x="774" d="M-12 1421h227l104 -403q11 -41 34 -135.5t38 -147.5h4q14 52 36.5 146t33.5 137l104 403h215l-268 -884h-256z" />
<glyph horiz-adv-x="1124" d="M16 1421h220l57 -403q28 -219 37 -281h6q5 28 22 128t29 153l92 403h180l95 -403q33 -163 53 -281h6q16 153 33 281l59 403h203l-156 -884h-268l-84 389q-24 113 -35 200h-6q-22 -139 -35 -200l-78 -389h-264z" />
<glyph horiz-adv-x="790" d="M14 537l250 454l-233 430h237l72 -157q9 -23 32.5 -73.5t33.5 -72.5h6q33 83 55 146l65 157h230l-232 -438l244 -446h-237l-80 174l-68 145h-4q-11 -26 -33.5 -73.5t-32.5 -71.5l-77 -174h-228z" />
<glyph horiz-adv-x="729" d="M-12 1421h227l76 -194l76 -199h4l73 199l76 194h221l-268 -571v-313h-213v313z" />
<glyph horiz-adv-x="745" d="M47 537v127l387 581h-350v176h614v-129l-389 -579h391v-176h-653z" />
<glyph horiz-adv-x="565" d="M109 1323q0 69 49.5 112.5t124.5 43.5q77 0 125.5 -43.5t48.5 -112.5t-49 -113.5t-125 -44.5q-75 0 -124.5 44.5t-49.5 113.5zM133 0v1016h301v-1016h-301z" />
<glyph horiz-adv-x="565" d="M84 -244q0 137 133 244h-84v1016h301v-1016q-76 -29 -111.5 -76t-35.5 -98q0 -38 25 -58t63 -20q19 0 71 25l62 -135q-37 -30 -97.5 -49t-109.5 -19q-95 0 -156 48.5t-61 137.5z" />
<glyph horiz-adv-x="1173" d="M80 508q0 120 37 222.5t97.5 169t137 103.5t156.5 37q148 0 264 -125h8l25 101h235v-1016h-245l-21 100h-8q-56 -56 -127.5 -90.5t-142.5 -34.5q-190 0 -303 143t-113 390zM389 512q0 -291 184 -291q100 0 166 92v416q-71 66 -168 66q-77 0 -129.5 -73t-52.5 -210z" />
<glyph horiz-adv-x="1173" d="M80 508q0 120 37 222.5t97.5 169t137 103.5t156.5 37q148 0 264 -125h8l25 101h235v-1016h-245l-21 100h-8q-56 -56 -127.5 -90.5t-142.5 -34.5q-190 0 -303 143t-113 390zM389 512q0 -291 184 -291q100 0 166 92v416q-71 66 -168 66q-77 0 -129.5 -73t-52.5 -210z M446 1176l183 307h291l-254 -307h-220z" />
<glyph horiz-adv-x="1173" d="M80 508q0 120 37 222.5t97.5 169t137 103.5t156.5 37q148 0 264 -125h8l25 101h235v-1016h-245l-21 100h-8q-56 -56 -127.5 -90.5t-142.5 -34.5q-190 0 -303 143t-113 390zM328 1460h168q8 -54 36.5 -86.5t79.5 -32.5q52 0 81.5 32.5t37.5 86.5h168q-5 -120 -78 -202 t-209 -82q-134 0 -206.5 82t-77.5 202zM389 512q0 -291 184 -291q100 0 166 92v416q-71 66 -168 66q-77 0 -129.5 -73t-52.5 -210z" />
<glyph horiz-adv-x="1173" d="M80 508q0 120 37 222.5t97.5 169t137 103.5t156.5 37q148 0 264 -125h8l25 101h235v-1016h-245l-21 100h-8q-56 -56 -127.5 -90.5t-142.5 -34.5q-190 0 -303 143t-113 390zM328 1460h135q10 -61 47 -99t102 -38q67 0 104.5 38t47.5 99h135q-5 -120 -78 -202t-209 -82 q-134 0 -206.5 82t-77.5 202zM389 512q0 -291 184 -291q100 0 166 92v416q-71 66 -168 66q-77 0 -129.5 -73t-52.5 -210zM518 1417l119 242h215l-182 -242h-152z" />
<glyph horiz-adv-x="1173" d="M80 508q0 120 37 222.5t97.5 169t137 103.5t156.5 37q148 0 264 -125h8l25 101h235v-1016h-245l-21 100h-8q-56 -56 -127.5 -90.5t-142.5 -34.5q-190 0 -303 143t-113 390zM328 1460h168q8 -54 36.5 -86.5t79.5 -32.5q52 0 81.5 32.5t37.5 86.5h168q-5 -120 -78 -202 t-209 -82q-134 0 -206.5 82t-77.5 202zM389 512q0 -291 184 -291q100 0 166 92v416q-71 66 -168 66q-77 0 -129.5 -73t-52.5 -210zM451 -305q0 69 46.5 113.5t118.5 44.5q73 0 120.5 -44.5t47.5 -113.5t-47.5 -113.5t-120.5 -44.5q-72 0 -118.5 44.5t-46.5 113.5z" />
<glyph horiz-adv-x="1173" d="M80 508q0 120 37 222.5t97.5 169t137 103.5t156.5 37q148 0 264 -125h8l25 101h235v-1016h-245l-21 100h-8q-56 -56 -127.5 -90.5t-142.5 -34.5q-190 0 -303 143t-113 390zM328 1460h135q10 -61 47 -99t102 -38q67 0 104.5 38t47.5 99h135q-5 -120 -78 -202t-209 -82 q-134 0 -206.5 82t-77.5 202zM375 1659h215l119 -242h-152zM389 512q0 -291 184 -291q100 0 166 92v416q-71 66 -168 66q-77 0 -129.5 -73t-52.5 -210z" />
<glyph horiz-adv-x="1173" d="M80 508q0 120 37 222.5t97.5 169t137 103.5t156.5 37q148 0 264 -125h8l25 101h235v-1016h-245l-21 100h-8q-56 -56 -127.5 -90.5t-142.5 -34.5q-190 0 -303 143t-113 390zM328 1460h135q10 -61 47 -99t102 -38q67 0 104.5 38t47.5 99h135q-5 -120 -78 -202t-209 -82 q-134 0 -206.5 82t-77.5 202zM389 512q0 -291 184 -291q100 0 166 92v416q-71 66 -168 66q-77 0 -129.5 -73t-52.5 -210zM451 1657l28 127q161 -6 232 -47.5t71 -116.5q0 -48 -18.5 -83t-53.5 -56t-74.5 -32.5t-92.5 -18.5l-21 102q32 7 48 19t16 38q0 30 -29.5 46 t-105.5 22z" />
<glyph horiz-adv-x="1173" d="M80 508q0 120 37 222.5t97.5 169t137 103.5t156.5 37q148 0 264 -125h8l25 101h235v-1016h-245l-21 100h-8q-56 -56 -127.5 -90.5t-142.5 -34.5q-190 0 -303 143t-113 390zM313 1475q13 116 64.5 174.5t124.5 58.5q36 0 69.5 -12t54 -27t44 -27t41.5 -12q54 0 71 78h131 q-13 -115 -64 -174t-124 -59q-47 0 -87 19.5t-70 38.5t-52 19q-55 0 -72 -77h-131zM330 1419h141q23 -102 141 -102q64 0 99 28.5t45 73.5h141q-3 -104 -75.5 -173.5t-209.5 -69.5q-135 0 -207 69.5t-75 173.5zM389 512q0 -291 184 -291q100 0 166 92v416q-71 66 -168 66 q-77 0 -129.5 -73t-52.5 -210z" />
<glyph horiz-adv-x="1173" d="M80 508q0 120 37 222.5t97.5 169t137 103.5t156.5 37q148 0 264 -125h8l25 101h235v-1016h-245l-21 100h-8q-56 -56 -127.5 -90.5t-142.5 -34.5q-190 0 -303 143t-113 390zM297 1483h203l108 -162h8l111 162h203l-197 -307h-239zM389 512q0 -291 184 -291q100 0 166 92 v416q-71 66 -168 66q-77 0 -129.5 -73t-52.5 -210z" />
<glyph horiz-adv-x="1173" d="M80 508q0 120 37 222.5t97.5 169t137 103.5t156.5 37q148 0 264 -125h8l25 101h235v-1016h-245l-21 100h-8q-56 -56 -127.5 -90.5t-142.5 -34.5q-190 0 -303 143t-113 390zM297 1176l197 307h239l197 -307h-203l-111 161h-8l-108 -161h-203zM389 512q0 -291 184 -291 q100 0 166 92v416q-71 66 -168 66q-77 0 -129.5 -73t-52.5 -210z" />
<glyph horiz-adv-x="1173" d="M80 508q0 120 37 222.5t97.5 169t137 103.5t156.5 37q148 0 264 -125h8l25 101h235v-1016h-245l-21 100h-8q-56 -56 -127.5 -90.5t-142.5 -34.5q-190 0 -303 143t-113 390zM328 1176l166 262h239l166 -262h-186l-97 133h-8l-94 -133h-186zM389 512q0 -291 184 -291 q100 0 166 92v416q-71 66 -168 66q-77 0 -129.5 -73t-52.5 -210zM831 1323l142 242h221l-195 -242h-168z" />
<glyph horiz-adv-x="1173" d="M80 508q0 120 37 222.5t97.5 169t137 103.5t156.5 37q148 0 264 -125h8l25 101h235v-1016h-245l-21 100h-8q-56 -56 -127.5 -90.5t-142.5 -34.5q-190 0 -303 143t-113 390zM297 1176l197 307h239l197 -307h-203l-111 161h-8l-108 -161h-203zM389 512q0 -291 184 -291 q100 0 166 92v416q-71 66 -168 66q-77 0 -129.5 -73t-52.5 -210zM451 -305q0 69 46.5 113.5t118.5 44.5q73 0 120.5 -44.5t47.5 -113.5t-47.5 -113.5t-120.5 -44.5q-72 0 -118.5 44.5t-46.5 113.5z" />
<glyph horiz-adv-x="1173" d="M80 508q0 120 37 222.5t97.5 169t137 103.5t156.5 37q148 0 264 -125h8l25 101h235v-1016h-245l-21 100h-8q-56 -56 -127.5 -90.5t-142.5 -34.5q-190 0 -303 143t-113 390zM328 1176l166 262h239l166 -262h-186l-97 133h-8l-94 -133h-186zM389 512q0 -291 184 -291 q100 0 166 92v416q-71 66 -168 66q-77 0 -129.5 -73t-52.5 -210zM762 1565h223l139 -242h-168z" />
<glyph horiz-adv-x="1173" d="M80 508q0 120 37 222.5t97.5 169t137 103.5t156.5 37q148 0 264 -125h8l25 101h235v-1016h-245l-21 100h-8q-56 -56 -127.5 -90.5t-142.5 -34.5q-190 0 -303 143t-113 390zM328 1176l166 262h239l166 -262h-186l-97 133h-8l-94 -133h-186zM389 512q0 -291 184 -291 q100 0 166 92v416q-71 66 -168 66q-77 0 -129.5 -73t-52.5 -210zM805 1513l26 127q162 -4 233 -45.5t71 -115.5q0 -49 -18.5 -84.5t-53.5 -56.5t-74.5 -33t-93.5 -19l-21 103q64 13 64 57q0 31 -29.5 47t-103.5 20z" />
<glyph horiz-adv-x="1173" d="M80 508q0 120 37 222.5t97.5 169t137 103.5t156.5 37q148 0 264 -125h8l25 101h235v-1016h-245l-21 100h-8q-56 -56 -127.5 -90.5t-142.5 -34.5q-190 0 -303 143t-113 390zM311 1174l166 227h273l165 -227h-196l-103 120h-8l-100 -120h-197zM313 1475q13 116 64.5 174.5 t124.5 58.5q36 0 69.5 -12t54 -27t44 -27t41.5 -12q54 0 71 78h131q-13 -115 -64 -174t-124 -59q-47 0 -87 19.5t-70 38.5t-52 19q-55 0 -72 -77h-131zM389 512q0 -291 184 -291q100 0 166 92v416q-71 66 -168 66q-77 0 -129.5 -73t-52.5 -210z" />
<glyph horiz-adv-x="1173" d="M80 508q0 120 37 222.5t97.5 169t137 103.5t156.5 37q148 0 264 -125h8l25 101h235v-1016h-245l-21 100h-8q-56 -56 -127.5 -90.5t-142.5 -34.5q-190 0 -303 143t-113 390zM268 1313q0 61 40 101t102 40t102.5 -40t40.5 -101q0 -62 -40 -103t-103 -41q-62 0 -102 41 t-40 103zM389 512q0 -291 184 -291q100 0 166 92v416q-71 66 -168 66q-77 0 -129.5 -73t-52.5 -210zM674 1313q0 61 39.5 101t103.5 40q62 0 101.5 -40t39.5 -101q0 -62 -39.5 -103t-101.5 -41q-64 0 -103.5 41t-39.5 103z" />
<glyph horiz-adv-x="1173" d="M80 508q0 120 37 222.5t97.5 169t137 103.5t156.5 37q148 0 264 -125h8l25 101h235v-1016h-245l-21 100h-8q-56 -56 -127.5 -90.5t-142.5 -34.5q-190 0 -303 143t-113 390zM389 512q0 -291 184 -291q100 0 166 92v416q-71 66 -168 66q-77 0 -129.5 -73t-52.5 -210z M451 -305q0 69 46.5 113.5t118.5 44.5q73 0 120.5 -44.5t47.5 -113.5t-47.5 -113.5t-120.5 -44.5q-72 0 -118.5 44.5t-46.5 113.5z" />
<glyph horiz-adv-x="1173" d="M80 508q0 120 37 222.5t97.5 169t137 103.5t156.5 37q148 0 264 -125h8l25 101h235v-1016h-245l-21 100h-8q-56 -56 -127.5 -90.5t-142.5 -34.5q-190 0 -303 143t-113 390zM307 1483h291l182 -307h-219zM389 512q0 -291 184 -291q100 0 166 92v416q-71 66 -168 66 q-77 0 -129.5 -73t-52.5 -210z" />
<glyph horiz-adv-x="1173" d="M80 508q0 120 37 222.5t97.5 169t137 103.5t156.5 37q148 0 264 -125h8l25 101h235v-1016h-245l-21 100h-8q-56 -56 -127.5 -90.5t-142.5 -34.5q-190 0 -303 143t-113 390zM389 512q0 -291 184 -291q100 0 166 92v416q-71 66 -168 66q-77 0 -129.5 -73t-52.5 -210z M446 1389l35 151q183 -6 263.5 -53.5t80.5 -134.5q0 -67 -39.5 -114t-101 -69.5t-143.5 -27.5l-23 119q92 14 92 61q0 60 -164 68z" />
</font>
</defs>
</svg>
